<?xml version="1.0" standalone="no"?>
<!DOCTYPE svg PUBLIC "-//W3C//DTD SVG 1.1//EN" "http://www.w3.org/Graphics/SVG/1.1/DTD/svg11.dtd" >
<svg>
<metadata>
Created by FontForge 20090914 at Tue Oct  7 15:55:42 2014
 By www-data
2009 Hans Reichel published by FSI FontShop International GmbH
</metadata>
<defs>
<font id="Eyrhoavdoykqfqglrijbhcjkdbb" horiz-adv-x="528" >
  <font-face 
    font-family="Eyrhoavdoykqfqglrijbhcjkdbb"
    font-weight="400"
    font-stretch="normal"
    units-per-em="1000"
    panose-1="2 11 5 4 3 1 1 2 1 2"
    ascent="785"
    descent="-215"
    x-height="539"
    cap-height="688"
    bbox="-123 -306 1128 979.001"
    underline-thickness="52"
    underline-position="-49"
    unicode-range="U+0020-U+FB02"
  />
<missing-glyph horiz-adv-x="533" 
d="M71 688h391v-688h-391v688zM405 57v574h-277v-574h277z" />
    <glyph glyph-name="fi" unicode="fi" horiz-adv-x="552" 
d="M189 484v-484.002h-88v484h-62v55h62v76c0 51.333 13.833 92.666 41.5 123.999s68.5 47 122.5 47h6c2.66699 0 6.66699 -0.333008 12 -1v-57h-6c-12 0 -23.333 -1.66699 -34 -5s-20 -9.16602 -28 -17.499s-14.333 -19.666 -19 -33.999s-7 -32.166 -7 -53.499v-79h94v-55
h-94zM387 -0.00195312v539h88v-539h-88zM484 690.998c0 -13.333 -5.16699 -24.833 -15.5 -34.5s-22.833 -14.5 -37.5 -14.5s-27.167 4.83301 -37.5 14.5s-15.5 21.167 -15.5 34.5s5.16699 24.833 15.5 34.5s22.833 14.5 37.5 14.5s27.167 -4.83301 37.5 -14.5
s15.5 -21.167 15.5 -34.5z" />
    <glyph glyph-name="fl" unicode="fl" horiz-adv-x="567" 
d="M189 484v-484.002h-88v484h-62v55h62v76c0 51.333 13.833 92.666 41.5 123.999s68.5 47 122.5 47h6c2.66699 0 6.66699 -0.333008 12 -1v-57h-6c-12 0 -23.333 -1.66699 -34 -5s-20 -9.16602 -28 -17.499s-14.333 -19.666 -19 -33.999s-7 -32.166 -7 -53.499v-79h94v-55
h-94zM402 -0.00195312v785h88v-785h-88z" />
    <glyph glyph-name=".notdef" horiz-adv-x="533" 
d="M71 688h391v-688h-391v688zM405 57v574h-277v-574h277z" />
    <glyph glyph-name="space" unicode=" " horiz-adv-x="276" 
 />
    <glyph glyph-name="exclam" unicode="!" horiz-adv-x="278" 
d="M177 228h-66l-18 460h102zM201 51c0 -15.333 -5.66699 -28.666 -17 -39.999s-24.666 -17 -39.999 -17s-28.666 5.66699 -39.999 17s-17 24.666 -17 39.999s5.66699 28.666 17 39.999s24.666 17 39.999 17s28.666 -5.66699 39.999 -17s17 -24.666 17 -39.999z" />
    <glyph glyph-name="quotedbl" unicode="&#x22;" horiz-adv-x="390" 
d="M301 426h-47.998l-19 247c9.33301 16 23.666 24 42.999 24s33.666 -8 42.999 -24zM137.002 426h-47.998l-19 247c9.33301 16 23.666 24 42.999 24s33.666 -8 42.999 -24z" />
    <glyph glyph-name="numbersign" unicode="#" 
d="M387 429l-21 -157h88v-48h-95l-30 -224h-52l30 224h-127l-30 -224h-52l30 224h-90v48h97l21 157h-90v48h96l29 211h52l-28 -211h126l29 211h52l-29 -211h89v-48h-95zM208 429l-21 -157h127l21 157h-127z" />
    <glyph glyph-name="dollar" unicode="$" 
d="M454 181c0 -24 -3.99805 -46.501 -11.998 -67.501s-19.333 -39.667 -34 -56s-32.5 -30.166 -53.5 -41.499s-44.5 -19 -70.5 -23v-121h-55v118c-31.333 0.666992 -61 4.16699 -89 10.5s-52 15.5 -72 27.5l26 62c17.333 -10.667 37.833 -18.667 61.5 -24s48.167 -8 73.5 -8
c42 0 74.5 11.333 97.5 34s34.5 51 34.5 85c0 28.667 -7 51.667 -21 69s-31.667 32.333 -53 45s-44.333 24.667 -69 36s-47.667 25 -69 41s-39 35.833 -53 59.5s-21 54.167 -21 91.5c0 48 14.833 87.5 44.5 118.5s69.5 50.167 119.5 57.5v116h56v-113
c26 -1.33301 50.5 -5.33301 73.5 -12s43.167 -15.334 60.5 -26.001l-25 -56c-14 8.66699 -31.5 16 -52.5 22s-42.167 9 -63.5 9c-38 0 -67.833 -9.66699 -89.5 -29s-32.5 -46.666 -32.5 -81.999c0 -28 7.16699 -50.5 21.5 -67.5s32.166 -31.833 53.499 -44.5
s44.333 -24.5 69 -35.5s47.667 -24.5 69 -40.5s39.166 -36.167 53.499 -60.5s21.5 -55.833 21.5 -94.5z" />
    <glyph glyph-name="percent" unicode="%" horiz-adv-x="850" 
d="M792 203c0 -26.667 -2.66699 -52.834 -8 -78.501s-13.666 -48.5 -24.999 -68.5s-25.833 -36 -43.5 -48s-38.834 -18 -63.501 -18s-45.834 6 -63.501 18s-32.167 28 -43.5 48s-19.666 42.833 -24.999 68.5s-8 51.834 -8 78.501s2.66699 52.834 8 78.501
s13.666 48.5 24.999 68.5s25.833 36 43.5 48s38.834 18 63.501 18s45.834 -6 63.501 -18s32.167 -28 43.5 -48s19.666 -42.833 24.999 -68.5s8 -51.834 8 -78.501zM332 -9l-51 18l236 688l51 -18zM338 485c0 -26.667 -2.66699 -52.834 -8 -78.501
s-13.666 -48.5 -24.999 -68.5s-25.833 -36 -43.5 -48s-38.834 -18 -63.501 -18s-45.834 6 -63.501 18s-32.167 28 -43.5 48s-19.666 42.833 -24.999 68.5s-8 51.834 -8 78.501s2.66699 52.834 8 78.501s13.666 48.5 24.999 68.5s25.833 36 43.5 48s38.834 18 63.501 18
s45.834 -6 63.501 -18s32.167 -28 43.5 -48s19.666 -42.833 24.999 -68.5s8 -51.834 8 -78.501zM727 204c0 20.667 -1.33301 41.167 -4 61.5s-6.83398 38.5 -12.501 54.5s-13.334 29 -23.001 39s-21.5 15 -35.5 15s-25.833 -5 -35.5 -15s-17.334 -23 -23.001 -39
s-9.83398 -34.167 -12.501 -54.5s-4 -40.833 -4 -61.5c0 -21.333 1.33301 -42 4 -62s6.83398 -38 12.501 -54s13.334 -28.833 23.001 -38.5s21.5 -14.5 35.5 -14.5s25.833 4.83301 35.5 14.5s17.334 22.5 23.001 38.5s9.83398 34 12.501 54s4 40.667 4 62zM273 486
c0 20.667 -1.33301 41.167 -4 61.5s-6.83398 38.5 -12.501 54.5s-13.334 29 -23.001 39s-21.5 15 -35.5 15s-25.833 -5 -35.5 -15s-17.334 -23 -23.001 -39s-9.83398 -34.167 -12.501 -54.5s-4 -40.833 -4 -61.5c0 -21.333 1.33301 -42 4 -62s6.83398 -38 12.501 -54
s13.334 -28.833 23.001 -38.5s21.5 -14.5 35.5 -14.5s25.833 4.83301 35.5 14.5s17.334 22.5 23.001 38.5s9.83398 34 12.501 54s4 40.667 4 62z" />
    <glyph glyph-name="ampersand" unicode="&#x26;" horiz-adv-x="613" 
d="M483 380l0.000976562 -351c-20.667 -12 -48 -21.5 -82 -28.5s-68 -10.5 -102 -10.5c-78.667 0 -140.167 16.167 -184.5 48.5s-66.5 79.5 -66.5 141.5c0 26.667 4.83301 50.334 14.5 71.001s22.5 39 38.5 55s34.833 29.833 56.5 41.5s44.5 21.5 68.5 29.5v2
c-46 11.333 -80.667 30.166 -104 56.499s-35 59.166 -35 98.499c0 26.667 5.33301 50.167 16 70.5s25.167 37.5 43.5 51.5s39.333 24.5 63 31.5s48.5 10.5 74.5 10.5c26.667 0 52 -3.16699 76 -9.5s45.667 -15.166 65 -26.499l-27 -53c-14 8 -30 14.5 -48 19.5
s-36.667 7.5 -56 7.5c-16 0 -31.167 -2.16699 -45.5 -6.5s-27 -11 -38 -20s-19.667 -20 -26 -33s-9.5 -28.5 -9.5 -46.5c0 -34 12.167 -61.833 36.5 -83.5s56.166 -32.5 95.499 -32.5c24 0 47.833 1.5 71.5 4.5s47.167 7.16699 70.5 12.5l141 29l13 -60zM396.001 370
c-88 -14 -152.333 -35.667 -193 -65s-61 -70.333 -61 -123c0 -40.667 13.167 -73.167 39.5 -97.5s66.5 -36.5 120.5 -36.5c18 0 35 1.5 51 4.5s30.333 7.16699 43 12.5v305z" />
    <glyph glyph-name="quotesingle" unicode="'" horiz-adv-x="226" 
d="M137 426h-47.998l-19 247c9.33301 16 23.666 24 42.999 24s33.666 -8 42.999 -24z" />
    <glyph glyph-name="parenleft" unicode="(" horiz-adv-x="343" 
d="M268 -230c-67.333 73.333 -118.833 152.5 -154.5 237.5s-53.5 177.833 -53.5 278.5s17.833 193.5 53.5 278.5s87.167 164.167 154.5 237.5l46 -32c-52 -68 -92 -143.333 -120 -226s-42 -168.667 -42 -258s14 -175.333 42 -258s68 -158 120 -226z" />
    <glyph glyph-name="parenright" unicode=")" horiz-adv-x="343" 
d="M283 286c0 -100.667 -17.833 -193.5 -53.5 -278.5s-87.167 -164.167 -154.5 -237.5l-46 32c52 68 92 143.333 120 226s42 168.667 42 258s-14 175.333 -42 258s-68 158 -120 226l46 32c67.333 -73.333 118.833 -152.5 154.5 -237.5s53.5 -177.833 53.5 -278.5z" />
    <glyph glyph-name="asterisk" unicode="*" horiz-adv-x="430" 
d="M375 728c0 -12.667 -4.33301 -23.334 -13 -32.001s-19.334 -13 -32.001 -13s-23.334 4.33301 -32.001 13s-13 19.334 -13 32.001s4.33301 23.334 13 32.001s19.334 13 32.001 13s23.334 -4.33301 32.001 -13s13 -19.334 13 -32.001zM260 813
c0 -12.667 -4.33301 -23.334 -13 -32.001s-19.334 -13 -32.001 -13s-23.334 4.33301 -32.001 13s-13 19.334 -13 32.001s4.33301 23.334 13 32.001s19.334 13 32.001 13s23.334 -4.33301 32.001 -13s13 -19.334 13 -32.001zM253 694c0 -10.667 -3.66699 -19.667 -11 -27
s-16.333 -11 -27 -11s-19.667 3.66699 -27 11s-11 16.333 -11 27s3.66699 19.667 11 27s16.333 11 27 11s19.667 -3.66699 27 -11s11 -16.333 11 -27zM331 595c0 -12.667 -4.33301 -23.334 -13 -32.001s-19.334 -13 -32.001 -13s-23.334 4.33301 -32.001 13
s-13 19.334 -13 32.001s4.33301 23.334 13 32.001s19.334 13 32.001 13s23.334 -4.33301 32.001 -13s13 -19.334 13 -32.001zM145 728c0 -12.667 -4.33301 -23.334 -13 -32.001s-19.334 -13 -32.001 -13s-23.334 4.33301 -32.001 13s-13 19.334 -13 32.001
s4.33301 23.334 13 32.001s19.334 13 32.001 13s23.334 -4.33301 32.001 -13s13 -19.334 13 -32.001zM189 595c0 -12.667 -4.33301 -23.334 -13 -32.001s-19.334 -13 -32.001 -13s-23.334 4.33301 -32.001 13s-13 19.334 -13 32.001s4.33301 23.334 13 32.001
s19.334 13 32.001 13s23.334 -4.33301 32.001 -13s13 -19.334 13 -32.001z" />
    <glyph glyph-name="plus" unicode="+" horiz-adv-x="518" 
d="M293 303v-165h-68v165h-163v62h163v164h68v-164h163v-62h-163z" />
    <glyph glyph-name="comma" unicode="," horiz-adv-x="257" 
d="M71 -145h-53.999l77 225c12.667 19.333 31 29 55 29c11.333 0 20.666 -2.66699 27.999 -8s12 -12.333 14 -21z" />
    <glyph glyph-name="hyphen" unicode="-" horiz-adv-x="344" 
d="M59 299v70h226v-70h-226z" />
    <glyph glyph-name="period" unicode="." horiz-adv-x="250" 
d="M182 51c0 -15.333 -5.66699 -28.666 -17 -39.999s-24.666 -17 -39.999 -17s-28.666 5.66699 -39.999 17s-17 24.666 -17 39.999s5.66699 28.666 17 39.999s24.666 17 39.999 17s28.666 -5.66699 39.999 -17s17 -24.666 17 -39.999z" />
    <glyph glyph-name="slash" unicode="/" horiz-adv-x="446" 
d="M71 -215l-73 27l342 988l73 -28z" />
    <glyph glyph-name="zero" unicode="0" 
d="M473 344c0 -44 -3.5 -87.167 -10.5 -129.5s-18.667 -80.166 -35 -113.499s-37.833 -60.166 -64.5 -80.499s-59.667 -30.5 -99 -30.5s-72.333 10.167 -99 30.5s-48.167 47.166 -64.5 80.499s-28 71.166 -35 113.499s-10.5 85.5 -10.5 129.5s3.5 87.167 10.5 129.5
s18.667 80.166 35 113.499s37.833 60.166 64.5 80.499s59.667 30.5 99 30.5s72.333 -10.167 99 -30.5s48.167 -47.166 64.5 -80.499s28 -71.166 35 -113.499s10.5 -85.5 10.5 -129.5zM387 346c0 34.667 -1.66699 69.5 -5 104.5s-9.5 66.667 -18.5 95s-21.5 51.333 -37.5 69
s-36.667 26.5 -62 26.5s-46 -8.83301 -62 -26.5s-28.5 -40.667 -37.5 -69s-15.167 -60 -18.5 -95s-5 -69.833 -5 -104.5s1.66699 -69.667 5 -105s9.5 -67.166 18.5 -95.499s21.5 -51.333 37.5 -69s36.667 -26.5 62 -26.5s46 8.83301 62 26.5s28.5 40.667 37.5 69
s15.167 60.166 18.5 95.499s5 70.333 5 105z" />
    <glyph glyph-name="one" unicode="1" 
d="M273 0v577c-10 -6 -22 -11.5 -36 -16.5s-29 -9.66699 -45 -14s-32.167 -8 -48.5 -11s-31.833 -5.16699 -46.5 -6.5l-11 53c48.667 7.33301 92.167 19.833 130.5 37.5s66.5 40.5 84.5 68.5h61v-688h-89z" />
    <glyph glyph-name="two" unicode="2" 
d="M40 0l248.998 356.002c24 34 39.833 62.667 47.5 86s11.5 45.666 11.5 66.999c0 38.667 -11.167 69 -33.5 91s-57.166 33 -104.499 33c-21.333 0 -43.5 -2.66699 -66.5 -8s-43.167 -12.333 -60.5 -21l-23 57c22.667 12 48.334 21.167 77.001 27.5s58.667 9.5 90 9.5
c72.667 0 126.5 -16.833 161.5 -50.5s52.5 -77.834 52.5 -132.501c0 -25.333 -6.5 -53.5 -19.5 -84.5s-34.833 -67.167 -65.5 -108.5l-185 -249h279v-73h-410z" />
    <glyph glyph-name="three" unicode="3" 
d="M453 199c0 -32 -5.82812 -60.833 -17.4951 -86.5s-27.834 -47.5 -48.501 -65.5s-44.834 -32 -72.501 -42s-57.834 -15 -90.501 -15c-32 0 -63.667 3 -95 9s-58 14.667 -80 26l25 61c17.333 -9.33301 38.5 -16.833 63.5 -22.5s49.167 -8.5 72.5 -8.5
c44.667 0 80.834 12.667 108.501 38s41.5 60.666 41.5 105.999c0 26 -4.66699 48.167 -14 66.5s-22 33.333 -38 45s-34.667 20.167 -56 25.5s-44 8 -68 8h-21v51c51.333 4 93 18 125 42s48 55.667 48 95c0 18.667 -3.16699 34.5 -9.5 47.5s-15 23.5 -26 31.5
s-23.5 13.833 -37.5 17.5s-28.667 5.5 -44 5.5c-46.667 0 -89.667 -9.33301 -129 -28l-24 57c23.333 11.333 49.166 20 77.499 26s57.5 9 87.5 9c26.667 0 51.667 -3.33301 75 -10s43.666 -16.5 60.999 -29.5s31.166 -29.167 41.499 -48.5s15.5 -41.666 15.5 -66.999
c0 -22 -3.83301 -41.5 -11.5 -58.5s-17.667 -31.833 -30 -44.5s-26 -23.5 -41 -32.5s-29.833 -16.167 -44.5 -21.5v-2c18 -4.66699 36.167 -11.5 54.5 -20.5s35 -20.833 50 -35.5s27.333 -32.667 37 -54s14.5 -46.333 14.5 -75z" />
    <glyph glyph-name="four" unicode="4" 
d="M416 157v-157h-81v157h-282v57l280 474h83v-478h56v-53h-56zM337 601c-6 -14 -13.168 -29.333 -21.501 -46s-17.166 -33 -26.499 -49l-173 -296h219v288c0 17.333 0.333008 34.5 1 51.5s1.66699 34.167 3 51.5h-2z" />
    <glyph glyph-name="five" unicode="5" 
d="M457 199c0 -28 -5.66406 -54.666 -16.9971 -79.999s-27 -47.5 -47 -66.5s-44.167 -34.167 -72.5 -45.5s-59.5 -17 -93.5 -17c-31.333 0 -62.833 3 -94.5 9s-58.167 14.667 -79.5 26l25 61c17.333 -9.33301 38.166 -16.833 62.499 -22.5s48.833 -8.5 73.5 -8.5
c23.333 0 44.166 3.83301 62.499 11.5s34 18 47 31s23 28.167 30 45.5s10.5 35.666 10.5 54.999c0 46 -14 83.5 -42 112.5s-73.667 43.5 -137 43.5c-15.333 0 -31 -0.666992 -47 -2s-32.333 -3.33301 -49 -6l37 342h311v-73h-249l-23 -211c7.33301 1.33301 16 2.33301 26 3
s19.667 1 29 1c75.333 0 133.666 -18.667 174.999 -56s62 -88.333 62 -153z" />
    <glyph glyph-name="six" unicode="6" 
d="M475 203c0 -27.333 -4.16504 -53.832 -12.498 -79.499s-21 -48.334 -38 -68.001s-38.5 -35.5 -64.5 -47.5s-56.667 -18 -92 -18c-68.667 0 -121.334 23 -158.001 69s-55 109.667 -55 191c0 57.333 8.33301 110 25 158s40.5 91 71.5 129s68.333 70.5 112 97.5
s92.5 48.167 146.5 63.5l19 -58c-32.667 -10.667 -62.667 -23 -90 -37s-52.166 -30.667 -74.499 -50s-42.333 -42.166 -60 -68.499s-32.834 -56.833 -45.501 -91.5c14 5.33301 29.167 9.66602 45.5 12.999s33.166 5 50.499 5c67.333 0 120.833 -18 160.5 -54
s59.5 -87.333 59.5 -154zM390.002 204.001c0 105.333 -50.001 157.999 -150.001 157.999c-16.667 0 -32.667 -1.66699 -48 -5s-30.333 -7.66602 -45 -12.999c-3.33301 -17.333 -5.5 -33 -6.5 -47s-1.5 -30.333 -1.5 -49c0 -62 10.667 -110.667 32 -146s54.333 -53 99 -53
c21.333 0 39.5 4.33301 54.5 13s27.333 20.167 37 34.5s16.834 30.833 21.501 49.5s7 38 7 58z" />
    <glyph glyph-name="seven" unicode="7" 
d="M392 474c-19.333 -44 -38 -89 -56 -135l-50 -132.5c-15.333 -42.333 -28.833 -81.333 -40.5 -117s-20.5 -65.5 -26.5 -89.5h-110l270 615h-319v73h425z" />
    <glyph glyph-name="eight" unicode="8" 
d="M474 163c0 -25.333 -5.33203 -48.668 -15.999 -70.001s-25.334 -39.666 -44.001 -54.999s-40.834 -27.166 -66.501 -35.499s-53.5 -12.5 -83.5 -12.5c-27.333 0 -53.666 3.83301 -78.999 11.5s-47.666 18.667 -66.999 33s-34.833 32.166 -46.5 53.499s-17.5 46 -17.5 74
c0 26 4.33301 48.833 13 68.5s20 37 34 52s30.167 28.5 48.5 40.5s37.5 23.667 57.5 35c-18 10 -35 20.667 -51 32s-30 24 -42 38s-21.667 29.667 -29 47s-11 37.333 -11 60c0 24 5 46 15 66s23.5 37.167 40.5 51.5s37.167 25.5 60.5 33.5s48 12 74 12
c26.667 0 51.5 -4 74.5 -12s43 -19.167 60 -33.5s30.5 -31.5 40.5 -51.5s15 -42 15 -66c0 -22 -3.5 -41.5 -10.5 -58.5s-16.5 -32.333 -28.5 -46s-25.833 -26 -41.5 -37s-32.5 -21.5 -50.5 -31.5c19.333 -11.333 38.166 -23 56.499 -35s34.5 -25.833 48.5 -41.5
s25.167 -33.5 33.5 -53.5s12.5 -43 12.5 -69zM379.001 535.998c0 33.333 -10.667 59.833 -32 79.5s-48.666 29.5 -81.999 29.5c-34 0 -61.5 -9.83301 -82.5 -29.5s-31.5 -46.167 -31.5 -79.5c0 -17.333 3 -32.833 9 -46.5s14.167 -26 24.5 -37s22.666 -21.333 36.999 -31
s29.833 -19.167 46.5 -28.5c16 9.33301 30.667 18.833 44 28.5s25 20 35 31s17.833 23.333 23.5 37s8.5 29.167 8.5 46.5zM392.001 162.998c0 21.333 -3.33203 40.001 -9.99902 56.001s-16 30.5 -28 43.5s-25.833 24.667 -41.5 35s-32.5 20.5 -50.5 30.5
c-18 -10 -34.667 -20.333 -50 -31s-28.833 -22.334 -40.5 -35.001s-20.834 -27 -27.501 -43s-10 -34.333 -10 -55c0 -18 3.5 -34.167 10.5 -48.5s16.333 -26.5 28 -36.5s25.334 -17.667 41.001 -23s32.167 -8 49.5 -8c37.333 0 68.166 10.667 92.499 32s36.5 49 36.5 83z
" />
    <glyph glyph-name="nine" unicode="9" 
d="M473 438c0 -57.333 -8.33203 -110.002 -24.999 -158.002s-40.5 -91 -71.5 -129s-68.333 -70.667 -112 -98s-92.5 -48.333 -146.5 -63l-19 58c32.667 10.667 62.667 23 90 37s52.166 30.667 74.499 50s42.166 42 59.499 68s32.666 56.667 45.999 92
c-14 -5.33301 -29.167 -9.66602 -45.5 -12.999s-33.166 -5 -50.499 -5c-67.333 0 -120.833 18 -160.5 54s-59.5 87.333 -59.5 154c0 27.333 4.16699 53.833 12.5 79.5s21 48.334 38 68.001s38.5 35.5 64.5 47.5s56.667 18 92 18c68.667 0 121.334 -23 158.001 -69
s55 -109.667 55 -191zM389.001 441.998c0 62 -10.666 110.668 -31.999 146.001s-54.333 53 -99 53c-21.333 0 -39.5 -4.33301 -54.5 -13s-27.333 -20.167 -37 -34.5s-16.834 -31 -21.501 -50s-7 -38.5 -7 -58.5c0 -104.667 50 -157 150 -157c32 0 63 5.66699 93 17
c3.33301 17.333 5.5 33.166 6.5 47.499s1.5 30.833 1.5 49.5z" />
    <glyph glyph-name="colon" unicode=":" horiz-adv-x="260" 
d="M192 51c0 -15.333 -5.66699 -28.666 -17 -39.999s-24.666 -17 -39.999 -17s-28.666 5.66699 -39.999 17s-17 24.666 -17 39.999s5.66699 28.666 17 39.999s24.666 17 39.999 17s28.666 -5.66699 39.999 -17s17 -24.666 17 -39.999zM192 356
c0 -15.333 -5.66699 -28.666 -17 -39.999s-24.666 -17 -39.999 -17s-28.666 5.66699 -39.999 17s-17 24.666 -17 39.999s5.66699 28.666 17 39.999s24.666 17 39.999 17s28.666 -5.66699 39.999 -17s17 -24.666 17 -39.999z" />
    <glyph glyph-name="semicolon" unicode=";" horiz-adv-x="263" 
d="M195 356c0 -16 -5.5 -29.667 -16.5 -41s-24.5 -17 -40.5 -17s-29.667 5.66699 -41 17s-17 25 -17 41s5.66699 29.5 17 40.5s25 16.5 41 16.5s29.5 -5.5 40.5 -16.5s16.5 -24.5 16.5 -40.5zM77 -145h-53l76 225c12.667 19.333 31.334 29 56.001 29
c11.333 0 20.666 -2.66699 27.999 -8s12 -12.333 14 -21z" />
    <glyph glyph-name="less" unicode="&#x3c;" horiz-adv-x="518" 
d="M62 305v58l394 172v-70l-317 -130v-2l317 -130v-71z" />
    <glyph glyph-name="equal" unicode="=" horiz-adv-x="518" 
d="M62 394v62h394v-62h-394zM62 211v62h394v-62h-394z" />
    <glyph glyph-name="greater" unicode="&#x3e;" horiz-adv-x="518" 
d="M62 132v71l317 130v2l-317 130v70l394 -172v-58z" />
    <glyph glyph-name="question" unicode="?" horiz-adv-x="406" 
d="M388 537c0 -22 -4.83203 -42.001 -14.499 -60.001s-21.834 -33.667 -36.501 -47s-30.5 -24.666 -47.5 -33.999s-32.833 -16 -47.5 -20l-9 -148h-66l-9 175c14.667 3.33301 30.167 8.33301 46.5 15s31.333 15.334 45 26.001s25 23.167 34 37.5s13.5 31.166 13.5 50.499
c0 30 -9.33301 54.667 -28 74s-48.334 29 -89.001 29c-17.333 0 -35.666 -2.33301 -54.999 -7s-35.666 -11 -48.999 -19l-26 52c18 11.333 40.167 20.333 66.5 27s52.166 10 77.499 10c59.333 0 106.5 -14.333 141.5 -43s52.5 -68 52.5 -118zM257.001 50.999
c0 -15.333 -5.66699 -28.666 -17 -39.999s-24.666 -17 -39.999 -17s-28.666 5.66699 -39.999 17s-17 24.666 -17 39.999s5.66699 28.666 17 39.999s24.666 17 39.999 17s28.666 -5.66699 39.999 -17s17 -24.666 17 -39.999z" />
    <glyph glyph-name="at" unicode="@" horiz-adv-x="912" 
d="M860 372c0 -48.667 -8.83008 -95.998 -26.4971 -141.998s-42.667 -86.833 -75 -122.5s-71.166 -64.334 -116.499 -86.001s-95.333 -32.5 -150 -32.5c-38 0 -71.333 6.16699 -100 18.5s-52.5 29 -71.5 50s-33.333 45.667 -43 74s-14.5 58.833 -14.5 91.5
c0 38.667 5.66699 75.834 17 111.501s27.666 67.167 48.999 94.5s47.166 49 77.499 65s64.5 24 102.5 24c30 0 56.833 -4.66699 80.5 -14s42.167 -19.666 55.5 -30.999l-64 -420c27.333 8 53.833 21 79.5 39s48.5 40.667 68.5 68s36.167 58.666 48.5 93.999
s18.5 74.666 18.5 117.999c0 37.333 -5.33301 72.666 -16 105.999s-26.834 62.666 -48.501 87.999s-49.167 45.333 -82.5 60s-73 22 -119 22c-66 0 -124.833 -12.333 -176.5 -37s-95 -57.167 -130 -97.5s-61.667 -86.166 -80 -137.499s-27.5 -103.666 -27.5 -156.999
c0 -49.333 7.33301 -95.833 22 -139.5s36.5 -82 65.5 -115s65 -59 108 -78s93.167 -28.5 150.5 -28.5c70.667 0 136.334 11.167 197.001 33.5s116 55.833 166 100.5l33 -40c-52 -48 -112 -84.333 -180 -109s-140.333 -37 -217 -37c-64.667 0 -122.334 10.5 -173.001 31.5
s-93.5 50 -128.5 87s-61.667 80.167 -80 129.5s-27.5 102.666 -27.5 159.999c0 62 11 122 33 180s53.667 109.5 95 154.5s91.666 81.167 150.999 108.5s126.666 41 201.999 41c53.333 0 100.333 -8.66699 141 -26s74.834 -41 102.501 -71s48.5 -64.667 62.5 -104
s21 -81 21 -125zM576.003 449.002c-9.33301 5.33301 -19.668 9.83398 -31.001 13.501s-25.666 5.5 -42.999 5.5c-27.333 0 -51.833 -6.83301 -73.5 -20.5s-40 -31.834 -55 -54.501s-26.333 -48.5 -34 -77.5s-11.5 -58.833 -11.5 -89.5c0 -57.333 14 -102.5 42 -135.5
s69.333 -49.5 124 -49.5h8c2 0 6.66699 0.333008 14 1z" />
    <glyph glyph-name="A" unicode="A" horiz-adv-x="590" 
d="M474 0l-64 208h-239l-65 -208h-87l232 688h87l233 -688h-97zM313 523c-4 12.667 -7.83203 27.334 -11.499 44.001s-6.5 31.667 -8.5 45h-2c-2 -11.333 -4.83301 -25.333 -8.5 -42s-7.83398 -32.334 -12.501 -47.001l-81 -260h204z" />
    <glyph glyph-name="B" unicode="B" horiz-adv-x="562" 
d="M514 186c0 -34.667 -6.33398 -64.335 -19.001 -89.002s-30 -45 -52 -61s-48.167 -27.667 -78.5 -35s-63.5 -11 -99.5 -11s-70.5 3.16699 -103.5 9.5s-61.167 15.5 -84.5 27.5v634c50.667 24.667 110.667 37 180 37c38 0 71.333 -4.33301 100 -13s52.667 -20.667 72 -36
s34 -33.5 44 -54.5s15 -44.167 15 -69.5c0 -43.333 -12 -78.166 -36 -104.499s-56 -44.5 -96 -54.5v-2c20.667 -4 40.5 -11.167 59.5 -21.5s35.833 -23.166 50.5 -38.499s26.334 -33 35.001 -53s13 -41.667 13 -65zM399.999 518.999c0 39.333 -11.5 69.832 -34.5 91.499
s-59.833 32.5 -110.5 32.5c-16 0 -31.833 -1.16699 -47.5 -3.5s-30.167 -6.16602 -43.5 -11.499v-243h52c64.667 0 111.5 11.167 140.5 33.5s43.5 55.833 43.5 100.5zM421.999 184.998c0 54 -17.002 93.166 -51.002 117.499s-85.667 36.5 -155 36.5h-52v-276
c12.667 -5.33301 27.167 -9.16602 43.5 -11.499s33.833 -3.5 52.5 -3.5c22.667 0 43.834 2.5 63.501 7.5s36.834 13 51.501 24s26.167 25.167 34.5 42.5s12.5 38.333 12.5 63z" />
    <glyph glyph-name="C" unicode="C" horiz-adv-x="479" 
d="M447 28c-18 -12 -38.001 -21.3369 -60.001 -28.0039s-47 -10 -75 -10c-44 0 -82.333 9.83301 -115 29.5s-59.5 45.834 -80.5 78.501s-36.667 70.334 -47 113.001s-15.5 87 -15.5 133s5.16699 90.333 15.5 133s26 80.334 47 113.001s47.833 58.834 80.5 78.501
s71 29.5 115 29.5c28 0 53 -3.33301 75 -10s42 -16 60 -28l-23 -56c-12.667 8 -27.834 14.833 -45.501 20.5s-36.167 8.5 -55.5 8.5c-31.333 0 -57.833 -8.33301 -79.5 -25s-39.5 -38.5 -53.5 -65.5s-24.167 -57.667 -30.5 -92s-9.5 -69.5 -9.5 -105.5s3.16699 -71 9.5 -105
s16.5 -64.5 30.5 -91.5s31.833 -48.667 53.5 -65s47.834 -24.5 78.501 -24.5c19.333 0 37.833 2.83301 55.5 8.5s32.834 12.5 45.501 20.5z" />
    <glyph glyph-name="D" unicode="D" horiz-adv-x="596" 
d="M542 344c0 -55.333 -6.5 -104.831 -19.5 -148.498s-31.667 -80.834 -56 -111.501s-54.333 -54 -90 -70s-76.167 -24 -121.5 -24c-31.333 0 -62.5 3 -93.5 9s-59.167 15.333 -84.5 28v634c25.333 12.667 53.5 22 84.5 28s62.167 9 93.5 9c45.333 0 85.833 -8 121.5 -24
s65.667 -39.333 90 -70s43 -67.834 56 -111.501s19.5 -93.167 19.5 -148.5zM448 346.002c0 94 -15.667 166 -47 216s-79.333 75 -144 75c-16.667 0 -33.334 -1.33301 -50.001 -4s-29.667 -6 -39 -10v-555c9.33301 -4 22.333 -7.33301 39 -10s33.334 -4 50.001 -4
c64.667 0 112.667 25.167 144 75.5s47 122.5 47 216.5z" />
    <glyph glyph-name="E" unicode="E" horiz-adv-x="442" 
d="M77 0v688h319v-62h-227v-240h204v-61h-204v-263h227v-62h-319z" />
    <glyph glyph-name="F" unicode="F" horiz-adv-x="434" 
d="M169 626v-240h203v-61h-203v-325h-92v688h317v-62h-225z" />
    <glyph glyph-name="G" unicode="G" horiz-adv-x="594" 
d="M523 27c-21.333 -11.333 -48.1699 -20.334 -80.5029 -27.001s-64.166 -10 -95.499 -10c-40.667 0 -78.834 7.33301 -114.501 22s-66.667 36.834 -93 66.501s-47.166 66.5 -62.499 110.5s-23 95.667 -23 155c0 53.333 7 101.833 21 145.5s34 81 60 112
s57.5 54.833 94.5 71.5s78.833 25 125.5 25c32 0 60.833 -3.33301 86.5 -10s48.834 -16 69.501 -28l-26 -57c-16 8.66699 -34.667 15.834 -56 21.501s-44.333 8.5 -69 8.5c-34 0 -64.167 -6.83301 -90.5 -20.5s-48.5 -33.167 -66.5 -58.5s-31.667 -56.166 -41 -92.499
s-14 -76.833 -14 -121.5c0 -48.667 5.33301 -90.834 16 -126.501s25 -65.334 43 -89.001s38.833 -41.167 62.5 -52.5s48.5 -17 74.5 -17c16.667 0 32.834 1 48.501 3s29.5 5.66699 41.5 11v259h-127v58h216v-359z" />
    <glyph glyph-name="H" unicode="H" horiz-adv-x="597" 
d="M428 0v325h-259v-325h-92v688h92v-302h259v302h92v-688h-92z" />
    <glyph glyph-name="I" unicode="I" horiz-adv-x="252" 
d="M80 0v688h92v-688h-92z" />
    <glyph glyph-name="J" unicode="J" horiz-adv-x="252" 
d="M172 74c0 -76.667 -18.5 -141 -55.5 -193s-90.5 -85.667 -160.5 -101v65c38.667 15.333 69 42 91 80s33 86 33 144v619h92v-614z" />
    <glyph glyph-name="K" unicode="K" horiz-adv-x="540" 
d="M412 0l-240 356h-2v-356h-90v688h90v-319h2l238 319h101l-255 -321l266 -367h-110z" />
    <glyph glyph-name="L" unicode="L" horiz-adv-x="411" 
d="M80 0v688h92v-626h207v-62h-299z" />
    <glyph glyph-name="M" unicode="M" horiz-adv-x="782" 
d="M641 0l-52.001 515c-1.33301 12.667 -2.33301 25.667 -3 39l-2 42h-2c-1.33301 -8 -4 -20.333 -8 -37l-11 -44l-147 -515h-59l-145 515l-9 35.5c-2.66699 11 -6 26.167 -10 45.5h-2c-0.666992 -17.333 -1.33398 -32.333 -2.00098 -45s-1.66699 -24.667 -3 -36l-54 -515
h-79l82 688h97l140 -496c4 -14 7.33301 -27.5 10 -40.5s5.33398 -27.833 8.00098 -44.5h2c2.66699 16.667 5.33398 31.5 8.00098 44.5s6 26.5 10 40.5l140 496h98l81 -688h-88z" />
    <glyph glyph-name="N" unicode="N" horiz-adv-x="647" 
d="M490 0l-300.001 513.001c-6 10 -12.667 22.5 -20 37.5s-13 27.167 -17 36.5h-2c2 -36 3 -64.333 3 -85v-502h-77v688h96l284 -489c5.33301 -9.33301 11 -19.833 17 -31.5l20 -40.5h2c-1.33301 18.667 -2.16602 33.667 -2.49902 45s-0.5 23.666 -0.5 36.999v479h77v-688
h-80z" />
    <glyph glyph-name="O" unicode="O" horiz-adv-x="606" 
d="M552 344c0 -50 -4.83301 -96.5 -14.5 -139.5s-24.667 -80.333 -45 -112s-46.166 -56.667 -77.499 -75s-68.666 -27.5 -111.999 -27.5s-80.666 9.16699 -111.999 27.5s-57.166 43.333 -77.499 75s-35.333 69 -45 112s-14.5 89.5 -14.5 139.5s4.83301 96.5 14.5 139.5
s24.667 80.333 45 112s46.166 56.667 77.499 75s68.666 27.5 111.999 27.5s80.666 -9.16699 111.999 -27.5s57.166 -43.333 77.499 -75s35.333 -69 45 -112s14.5 -89.5 14.5 -139.5zM459 346c0 38.667 -2.5 75.334 -7.5 110.001s-13.5 65.334 -25.5 92.001
s-28 47.834 -48 63.501s-45 23.5 -75 23.5s-55 -7.83301 -75 -23.5s-36 -36.834 -48 -63.501s-20.5 -57.334 -25.5 -92.001s-7.5 -71.334 -7.5 -110.001s2.5 -75.5 7.5 -110.5s13.5 -65.833 25.5 -92.5s28 -47.834 48 -63.501s45 -23.5 75 -23.5s55 7.83301 75 23.5
s36 36.834 48 63.501s20.5 57.5 25.5 92.5s7.5 71.833 7.5 110.5z" />
    <glyph glyph-name="P" unicode="P" horiz-adv-x="526" 
d="M485 490c0 -28.667 -4.83203 -55.668 -14.499 -81.001s-24.834 -47.5 -45.501 -66.5s-46.667 -34 -78 -45s-69 -16.5 -113 -16.5c-12 0 -23.833 0.666992 -35.5 2s-22.167 2.66602 -31.5 3.99902v-287h-90v661c22.667 11.333 49 20.333 79 27s61 10 93 10
c40.667 0 75.834 -5.16699 105.501 -15.5s54.167 -24.666 73.5 -42.999s33.666 -40.166 42.999 -65.499s14 -53.333 14 -84zM396.001 491.999c0 46.667 -11.502 83.5 -34.502 110.5s-60.5 40.5 -112.5 40.5c-15.333 0 -30 -1.33301 -44 -4s-26.667 -6 -38 -10v-287
c9.33301 -1.33301 19.833 -2.5 31.5 -3.5s23.5 -1.5 35.5 -1.5c30 0 55.333 4 76 12s37.334 19 50.001 33s21.834 30.333 27.501 49s8.5 39 8.5 61z" />
    <glyph glyph-name="Q" unicode="Q" horiz-adv-x="604" 
d="M550 344c0 -36 -2.49902 -70.667 -7.49902 -104s-12.833 -64 -23.5 -92s-24 -52.833 -40 -74.5s-35.333 -39.167 -58 -52.5l121 -151l-69 -57l-108 186c-19.333 -6 -40.333 -9 -63 -9c-43.333 0 -80.666 9.16699 -111.999 27.5s-57 43.333 -77 75s-34.833 69 -44.5 112
s-14.5 89.5 -14.5 139.5s4.83301 96.5 14.5 139.5s24.5 80.333 44.5 112s45.667 56.667 77 75s68.666 27.5 111.999 27.5s80.666 -9.16699 111.999 -27.5s57 -43.333 77 -75s34.833 -69 44.5 -112s14.5 -89.5 14.5 -139.5zM458.001 346c0 38.667 -2.5 75.334 -7.5 110.001
s-13.5 65.334 -25.5 92.001s-28 47.834 -48 63.501s-45 23.5 -75 23.5s-55 -7.83301 -75 -23.5s-36 -36.834 -48 -63.501s-20.5 -57.334 -25.5 -92.001s-7.5 -71.334 -7.5 -110.001s2.5 -75.5 7.5 -110.5s13.5 -65.833 25.5 -92.5s28 -47.834 48 -63.501s45 -23.5 75 -23.5
s55 7.83301 75 23.5s36 36.834 48 63.501s20.5 57.5 25.5 92.5s7.5 71.833 7.5 110.5z" />
    <glyph glyph-name="R" unicode="R" horiz-adv-x="546" 
d="M407 0l-131.003 225.001c-13.333 22.667 -28.666 42 -45.999 58s-38 27 -62 33v-316h-89v661c23.333 11.333 49.833 20.333 79.5 27s59.834 10 90.501 10c76.667 0 135.834 -16.333 177.501 -49s62.5 -81.334 62.5 -146.001c0 -24.667 -4.66699 -47.667 -14 -69
s-22.5 -40.166 -39.5 -56.499s-37.333 -30 -61 -41s-49.5 -18.5 -77.5 -22.5v-2c13.333 -11.333 25.833 -23.833 37.5 -37.5s22.167 -27.834 31.5 -42.501l146 -232h-105zM399.997 501.001c0 94.667 -49.6699 142 -149.003 142c-15.333 0 -30.166 -1.33301 -44.499 -4
s-27.166 -6 -38.499 -10v-274c9.33301 -2 19.333 -3.33301 30 -4s21.667 -1 33 -1c26 0 49.333 3.66699 70 11s38.334 17.833 53.001 31.5s26 29.667 34 48s12 38.5 12 60.5z" />
    <glyph glyph-name="S" unicode="S" horiz-adv-x="484" 
d="M431 181c0 -27.333 -5.16797 -52.666 -15.501 -75.999s-25 -43.5 -44 -60.5s-42 -30.333 -69 -40s-56.833 -14.5 -89.5 -14.5s-63.667 3.16699 -93 9.5s-54.666 15.833 -75.999 28.5l27 62c18.667 -11.333 39.667 -19.5 63 -24.5s47.333 -7.5 72 -7.5
c42.667 0 75.167 11.167 97.5 33.5s33.5 50.5 33.5 84.5c0 28 -7 50.833 -21 68.5s-31.667 33 -53 46s-44.166 25.167 -68.499 36.5s-47.166 25 -68.499 41s-39 35.833 -53 59.5s-21 54.167 -21 91.5c0 26.667 5 51.167 15 73.5s24 41.166 42 56.499s39.667 27.333 65 36
s53.333 13 84 13c28.667 0 55.667 -3.5 81 -10.5s47.333 -16.167 66 -27.5l-24 -56c-14.667 9.33301 -32.5 16.833 -53.5 22.5s-41.833 8.5 -62.5 8.5c-38.667 0 -68.667 -9.5 -90 -28.5s-32 -46.167 -32 -81.5c0 -28 7.16699 -50.5 21.5 -67.5s32.166 -31.833 53.499 -44.5
s44.333 -24.667 69 -36s47.667 -25 69 -41s39.166 -36.167 53.499 -60.5s21.5 -55.833 21.5 -94.5z" />
    <glyph glyph-name="T" unicode="T" horiz-adv-x="442" 
d="M267 626v-626h-92v626h-145v62h382v-62h-145z" />
    <glyph glyph-name="U" unicode="U" horiz-adv-x="585" 
d="M508 196c0 -29.333 -4.99805 -56.666 -14.998 -81.999s-24.333 -47.166 -43 -65.499s-41.334 -32.833 -68.001 -43.5s-56.667 -16 -90 -16s-63.333 5.33301 -90 16s-49.167 25.167 -67.5 43.5s-32.5 40.166 -42.5 65.499s-15 52.666 -15 81.999v492h92v-492
c0 -21.333 3.5 -40.333 10.5 -57s16.167 -30.834 27.5 -42.501s24.666 -20.5 39.999 -26.5s31.666 -9 48.999 -9c16.667 0 32.834 3 48.501 9s29.167 14.833 40.5 26.5s20.5 25.834 27.5 42.501s10.5 35.667 10.5 57v492h85v-492z" />
    <glyph glyph-name="V" unicode="V" horiz-adv-x="531" 
d="M306 0h-80l-202 688h97l127 -484c9.33301 -36 16.333 -69.667 21 -101h2l8.5 49.5c3 17 6.83301 34.167 11.5 51.5l130 484h88z" />
    <glyph glyph-name="W" unicode="W" horiz-adv-x="818" 
d="M622 0l-81.001 0.00390625l-117 480c-3.33301 15.333 -6 29.166 -8 41.499s-3.66699 24.833 -5 37.5h-2c-1.33301 -11.333 -3.16602 -23.5 -5.49902 -36.5s-5.16602 -27.167 -8.49902 -42.5l-116 -480h-82l-161 688h94l101 -497c2.66699 -12.667 5 -26.167 7 -40.5
s3.66699 -28.833 5 -43.5h2c2 15.333 4 29.166 6 41.499s5 26.5 9 42.5l119 497h71l115 -497c1.33301 -5.33301 2.66602 -11.666 3.99902 -18.999l4 -23c1.33301 -8 2.5 -15.833 3.5 -23.5s1.83301 -13.834 2.5 -18.501h2c0.666992 5.33301 1.66699 12.166 3 20.499l4 24.5
l4 23c1.33301 7.33301 2.33301 12.666 3 15.999l103 497h85z" />
    <glyph glyph-name="X" unicode="X" horiz-adv-x="526" 
d="M399 0l-137 291h-2l-142 -291h-94l191 355l-173 333h98l123 -262h2l129 262h89l-172 -324l191 -364h-103z" />
    <glyph glyph-name="Y" unicode="Y" horiz-adv-x="501" 
d="M297 305v-305h-92v305l-188 383h99l138 -311h2l142 311h88z" />
    <glyph glyph-name="Z" unicode="Z" horiz-adv-x="444" 
d="M24 0l263 626h-247v62h364l-260 -626h267v-62h-387z" />
    <glyph glyph-name="bracketleft" unicode="[" horiz-adv-x="324" 
d="M78 -215v1000h200v-51h-121v-897h121v-52h-200z" />
    <glyph glyph-name="backslash" unicode="\" horiz-adv-x="446" 
d="M375 -215l-342 987l72 28l343 -988z" />
    <glyph glyph-name="bracketright" unicode="]" horiz-adv-x="324" 
d="M46 -215v52h121v897h-121v51h200v-1000h-200z" />
    <glyph glyph-name="asciicircum" unicode="^" horiz-adv-x="482" 
d="M387 469l-146 151l-146 -151l-39 36l146 175c5.33301 6.66699 11.333 11.334 18 14.001s13.667 4 21 4s14.333 -1.33301 21 -4s12.667 -7.33398 18 -14.001l146 -175z" />
    <glyph glyph-name="underscore" unicode="_" horiz-adv-x="500" 
d="M-10 -127v52h520v-52h-520z" />
    <glyph glyph-name="grave" unicode="`" horiz-adv-x="242" 
d="M123 599l-113 131.001c4 7.33301 9.83301 12.666 17.5 15.999s16.167 5 25.5 5c18.667 0 34.667 -5 48 -15l73 -137h-51z" />
    <glyph glyph-name="a" unicode="a" horiz-adv-x="499" 
d="M428 28c-21.333 -11.333 -47.502 -20.499 -78.502 -27.499s-64.5 -10.5 -100.5 -10.5c-64.667 0 -115 13.667 -151 41s-54 68 -54 122c0 32.667 7.5 60.5 22.5 83.5s36 42.167 63 57.5s59 27.5 96 36.5s77.167 15.5 120.5 19.5v33c0 37.333 -9.66699 64.5 -29 81.5
s-48 25.5 -86 25.5c-23.333 0 -47 -3.16699 -71 -9.5s-45.333 -14.5 -64 -24.5l-21 54c22.667 11.333 48.334 20.666 77.001 27.999s57.667 11 87 11c58.667 0 104.834 -14 138.501 -42s50.5 -72.333 50.5 -133v-346zM345.998 304.001
c-68.667 -8 -122.168 -22.998 -160.501 -44.998s-57.5 -56.667 -57.5 -104c0 -36.667 11 -64.834 33 -84.501s54 -29.5 96 -29.5c17.333 0 33.833 1.66699 49.5 5s28.834 7.66602 39.501 12.999v245z" />
    <glyph glyph-name="b" unicode="b" horiz-adv-x="527" 
d="M477 280c0 -43.333 -5.33008 -82.833 -15.9971 -118.5s-26.334 -66.167 -47.001 -91.5s-46.334 -45 -77.001 -59s-66 -21 -106 -21c-32 0 -62.167 3.66699 -90.5 11s-51.5 16.333 -69.5 27v757h87v-262c30.667 16 66.667 24 108 24c31.333 0 60 -6.33301 86 -19
s48.167 -30.5 66.5 -53.5s32.666 -51 42.999 -84s15.5 -69.833 15.5 -110.5zM389.003 275c0 68 -12.501 121.5 -37.501 160.5s-60.833 58.5 -107.5 58.5c-16 0 -31.167 -1.83301 -45.5 -5.5s-27.833 -8.5 -40.5 -14.5v-414c10 -4.66699 21.833 -8.16699 35.5 -10.5
s27.167 -3.5 40.5 -3.5c28 0 51.667 5.66699 71 17s35.333 27 48 47s21.834 44 27.501 72s8.5 59 8.5 93z" />
    <glyph glyph-name="c" unicode="c" horiz-adv-x="415" 
d="M380 25c-14.667 -11.333 -32.167 -19.9971 -52.5 -25.9971s-43.166 -9 -68.499 -9c-32.667 0 -61.834 6.83301 -87.501 20.5s-47.5 32.834 -65.5 57.501s-31.833 54.167 -41.5 88.5s-14.5 72.166 -14.5 113.499s4.83301 79.166 14.5 113.499s23.5 63.666 41.5 87.999
s40 43.333 66 57s55 20.5 87 20.5c25.333 0 48.166 -3 68.499 -9s37.833 -14.667 52.5 -26l-21 -52c-10.667 8 -23.5 14.5 -38.5 19.5s-30.5 7.5 -46.5 7.5c-21.333 0 -40.333 -5.5 -57 -16.5s-30.667 -26.167 -42 -45.5s-20 -42.333 -26 -69s-9 -55.334 -9 -86.001
s3 -59.167 9 -85.5s14.667 -49.333 26 -69s25.333 -35.167 42 -46.5s35.667 -17 57 -17c16 0 31.333 2.33301 46 7s27.334 11 38.001 19z" />
    <glyph glyph-name="d" unicode="d" horiz-adv-x="527" 
d="M456 28c-18 -11.333 -41.833 -20.5 -71.5 -27.5s-62.5 -10.5 -98.5 -10.5c-38.667 0 -72.667 6.5 -102 19.5s-54 31.167 -74 54.5s-35 51.666 -45 84.999s-15 70 -15 110s5 77.333 15 112s24.833 64.834 44.5 90.501s44.167 46 73.5 61s63.666 22.5 102.999 22.5
c13.333 0 26.833 -0.833008 40.5 -2.5s27.834 -4.5 42.501 -8.5v251h87v-757zM369 483c-10.667 3.33301 -21.8271 5.83398 -33.4941 7.50098s-23.167 2.5 -34.5 2.5c-30.667 0 -56.334 -6.16699 -77.001 -18.5s-37.334 -28.833 -50.001 -49.5s-21.834 -44.667 -27.501 -72
s-8.5 -55.666 -8.5 -84.999c0 -32 2.83301 -61.333 8.5 -88s14.667 -49.834 27 -69.501s28.166 -35 47.499 -46s42.666 -16.5 69.999 -16.5c18 0 33.167 1.16699 45.5 3.5s23.166 6.16602 32.499 11.499v420z" />
    <glyph glyph-name="e" unicode="e" horiz-adv-x="524" 
d="M135 235c4 -56 19.832 -100.332 47.499 -132.999s67.167 -49 118.5 -49c24.667 0 48.834 3 72.501 9s43.167 13.667 58.5 23l23 -57c-19.333 -11.333 -43.333 -20.5 -72 -27.5s-59 -10.5 -91 -10.5c-77.333 0 -137 24.833 -179 74.5s-63 118.5 -63 206.5
c0 42 5 80.167 15 114.5s24.333 63.666 43 87.999s41.5 43 68.5 56s57.5 19.5 91.5 19.5c64.667 0 115.167 -21 151.5 -63s54.5 -105.667 54.5 -191v-10zM388.999 323.001c-1.33301 54.667 -11.667 96.833 -31 126.5s-50 44.5 -92 44.5c-22 0 -41.5 -5 -58.5 -15
s-31.167 -24 -42.5 -42s-19.833 -39.667 -25.5 -65s-8.5 -53.333 -8.5 -84v-5z" />
    <glyph glyph-name="f" unicode="f" horiz-adv-x="310" 
d="M189 484v-484.002h-88v484h-62v55h62v76c0 51.333 13.833 92.666 41.5 123.999s68.5 47 122.5 47h7c2 0 5.66699 -0.333008 11 -1v-57h-6c-12 0 -23.333 -1.66699 -34 -5s-20 -9.16602 -28 -17.499s-14.333 -19.666 -19 -33.999s-7 -32.166 -7 -53.499v-79h94v-55h-94z
" />
    <glyph glyph-name="g" unicode="g" horiz-adv-x="527" 
d="M456 -8c0 -68.667 -17.999 -121.998 -53.999 -159.998s-87.333 -57 -154 -57c-32 0 -62.833 3.5 -92.5 10.5s-54.167 16.167 -73.5 27.5l26 58c15.333 -8.66699 34.166 -16 56.499 -22s45.166 -9 68.499 -9c48.667 0 83.5 13.333 104.5 40s31.5 60.667 31.5 102v36
c-12 -7.33301 -27 -13.166 -45 -17.499s-38.667 -6.5 -62 -6.5c-32.667 0 -62 6.16699 -88 18.5s-48.167 30.166 -66.5 53.499s-32.5 51.333 -42.5 84s-15 69.667 -15 111c0 43.333 5.33301 82.666 16 117.999s26.334 65.666 47.001 90.999s46.5 44.833 77.5 58.5
s66.5 20.5 106.5 20.5c31.333 0 61 -3.33301 89 -10s51.333 -15.667 70 -27v-520zM369.001 481.002c-10 5.33301 -21.668 9.16699 -35.001 11.5s-27.333 3.5 -42 3.5c-27.333 0 -50.666 -5.5 -69.999 -16.5s-35.166 -26.5 -47.499 -46.5s-21.5 -44.333 -27.5 -73
s-9 -60.667 -9 -96c0 -68.667 11.5 -121.667 34.5 -159s60.5 -56 112.5 -56c17.333 0 33.166 2.16699 47.499 6.5s26.5 9.5 36.5 15.5v410z" />
    <glyph glyph-name="h" unicode="h" horiz-adv-x="534" 
d="M375 0v379.997c0 14 -1.66699 27.5 -5 40.5s-9.33301 24.5 -18 34.5s-20 18 -34 24s-31.667 9 -53 9c-19.333 0 -38 -2.5 -56 -7.5s-34.667 -12.167 -50 -21.5v-459h-88v785h88v-274c16.667 10 35.5 18 56.5 24s43.5 9 67.5 9c34 0 62.5 -4.66699 85.5 -14
s41.5 -21.666 55.5 -36.999s24 -32.666 30 -51.999s9 -38.666 9 -57.999v-383h-88z" />
    <glyph glyph-name="i" unicode="i" horiz-adv-x="242" 
d="M174 691c0 -13.333 -5.16699 -24.833 -15.5 -34.5s-22.833 -14.5 -37.5 -14.5s-27.167 4.83301 -37.5 14.5s-15.5 21.167 -15.5 34.5s5.16699 24.833 15.5 34.5s22.833 14.5 37.5 14.5s27.167 -4.83301 37.5 -14.5s15.5 -21.167 15.5 -34.5zM77 0v539h88v-539h-88z" />
    <glyph glyph-name="j" unicode="j" horiz-adv-x="246" 
d="M169 72c0 -78 -14.667 -141.334 -44 -190.001s-77 -83 -143 -103v60c18 10.667 33.333 22.834 46 36.501s23 29.5 31 47.5s13.667 38.333 17 61s5 48.667 5 78v477h88v-467zM178 690.999c0 -13.333 -5.16699 -24.833 -15.5 -34.5s-22.833 -14.5 -37.5 -14.5
s-27.167 4.83301 -37.5 14.5s-15.5 21.167 -15.5 34.5s5.16699 24.833 15.5 34.5s22.833 14.5 37.5 14.5s27.167 -4.83301 37.5 -14.5s15.5 -21.167 15.5 -34.5z" />
    <glyph glyph-name="k" unicode="k" horiz-adv-x="489" 
d="M376 0l-212 275h-2v-275h-86v785h86v-499h2l200 253h97l-216 -256l236 -283h-105z" />
    <glyph glyph-name="l" unicode="l" horiz-adv-x="242" 
d="M77 0v785h88v-785h-88z" />
    <glyph glyph-name="m" unicode="m" horiz-adv-x="834" 
d="M676 0v376c0 36 -8.5 64.5 -25.5 85.5s-45.5 31.5 -85.5 31.5c-22 0 -41.667 -4.66699 -59 -14s-32.666 -21.666 -45.999 -36.999v-442h-87v390c0 31.333 -9 56.333 -27 75s-47 28 -87 28c-20.667 0 -38.834 -1.33301 -54.501 -4s-31.167 -7.33398 -46.5 -14.001v-475
h-87v511c26 11.333 54.167 20.5 84.5 27.5s63.833 10.5 100.5 10.5c40.667 0 73.5 -5.33301 98.5 -16s46.167 -26.334 63.5 -47.001c18 19.333 40.333 34.666 67 45.999s56 17 88 17c32.667 0 61 -4.16699 85 -12.5s43.833 -20.166 59.5 -35.499
s27.167 -33.666 34.5 -54.999s11 -45 11 -71v-375h-87z" />
    <glyph glyph-name="n" unicode="n" horiz-adv-x="534" 
d="M375 0l0.000976562 371.999c0 40.667 -9.16699 71 -27.5 91s-49.5 30 -93.5 30c-35.333 0 -67 -6 -95 -18v-475h-88v511c25.333 11.333 53.666 20.5 84.999 27.5s64 10.5 98 10.5c72.667 0 125.667 -15.167 159 -45.5s50 -74.166 50 -131.499v-372h-88z" />
    <glyph glyph-name="o" unicode="o" horiz-adv-x="526" 
d="M476 270c0 -40.667 -4.33301 -78 -13 -112s-21.667 -63.5 -39 -88.5s-39.333 -44.5 -66 -58.5s-58.334 -21 -95.001 -21s-68.334 7 -95.001 21s-48.834 33.5 -66.501 58.5s-30.667 54.5 -39 88.5s-12.5 71.333 -12.5 112c0 40 4.16699 77.167 12.5 111.5
s21.333 63.833 39 88.5s39.834 44 66.501 58s58.334 21 95.001 21s68.334 -7 95.001 -21s48.667 -33.333 66 -58s30.333 -54.167 39 -88.5s13 -71.5 13 -111.5zM388 272c0 30 -2.16699 58.333 -6.5 85s-11.333 50.167 -21 70.5s-22.5 36.333 -38.5 48s-35.667 17.5 -59 17.5
s-43 -5.83301 -59 -17.5s-28.833 -27.667 -38.5 -48s-16.667 -43.833 -21 -70.5s-6.5 -55 -6.5 -85s2.16699 -58.5 6.5 -85.5s11.333 -50.667 21 -71s22.5 -36.5 38.5 -48.5s35.667 -18 59 -18s43 6 59 18s28.833 28.167 38.5 48.5s16.667 44 21 71s6.5 55.5 6.5 85.5z" />
    <glyph glyph-name="p" unicode="p" horiz-adv-x="527" 
d="M477 279c0 -45.333 -5.66699 -85.666 -17 -120.999s-27.166 -65.333 -47.499 -90s-45 -43.5 -74 -56.5s-61.167 -19.5 -96.5 -19.5c-15.333 0 -30.666 1.33301 -45.999 4s-28 5.66699 -38 9v-220h-87v727c23.333 12 49.166 21.167 77.499 27.5s58.166 9.5 89.499 9.5
c38.667 0 72.834 -6.33301 102.501 -19s54.667 -30.834 75 -54.501s35.666 -52.167 45.999 -85.5s15.5 -70.333 15.5 -111zM389 274c0 34 -2.66699 64.501 -8 91.501s-14.166 50.167 -26.499 69.5s-28.333 34.166 -48 44.499s-43.5 15.5 -71.5 15.5
c-13.333 0 -26.833 -1 -40.5 -3s-25.834 -5.66699 -36.501 -11v-422c8 -3.33301 17.5 -6 28.5 -8s23.167 -3 36.5 -3c55.333 0 96.833 19.667 124.5 59s41.5 95 41.5 167z" />
    <glyph glyph-name="q" unicode="q" horiz-adv-x="527" 
d="M369 -215l-0.00195312 231.001c-12.667 -7.33301 -28 -13.166 -46 -17.499s-38 -6.5 -60 -6.5c-32.667 0 -62.167 6.33301 -88.5 19s-48.666 30.667 -66.999 54s-32.5 51.5 -42.5 84.5s-15 69.833 -15 110.5c0 43.333 5.33301 82.666 16 117.999
s26.334 65.666 47.001 90.999s46.5 45 77.5 59s66.5 21 106.5 21c31.333 0 61 -3.33301 89 -10s51.333 -15.667 70 -27v-727h-87zM368.998 481.001c-10 5.33301 -21.666 9.16797 -34.999 11.501s-27.333 3.5 -42 3.5c-54 0 -93.333 -21 -118 -63s-37 -98.333 -37 -169
c0 -68.667 11.833 -121.834 35.5 -159.501s61.167 -56.5 112.5 -56.5c17.333 0 33.166 2.16699 47.499 6.5s26.5 9.5 36.5 15.5v411z" />
    <glyph glyph-name="r" unicode="r" horiz-adv-x="322" 
d="M282 480c-16 6 -34.332 9.00098 -54.999 9.00098c-12 0 -24 -1 -36 -3s-22.667 -5.66699 -32 -11v-475h-88v511c23.333 11.333 50.166 20.5 80.499 27.5s64.833 10.5 103.5 10.5c10 0 19.667 -0.333008 29 -1s15.333 -1.33398 18 -2.00098z" />
    <glyph glyph-name="s" unicode="s" horiz-adv-x="418" 
d="M370 149c0 -22 -4.5 -42.501 -13.5 -61.501s-21.5 -35.833 -37.5 -50.5s-35.333 -26.167 -58 -34.5s-47.667 -12.5 -75 -12.5c-26.667 0 -53.167 3.33301 -79.5 10s-48.166 15.667 -65.499 27l25 56c16 -10 33.667 -17.667 53 -23s38.666 -8 57.999 -8
c32 0 57.333 8.83301 76 26.5s28 39.834 28 66.501c0 22 -5.66699 39.5 -17 52.5s-25.333 24 -42 33s-35 17.5 -55 25.5s-38.333 17.833 -55 29.5s-30.667 26.5 -42 44.5s-17 42 -17 72c0 20.667 4 40 12 58s19.333 33.5 34 46.5s32.167 23.333 52.5 31
s42.833 11.5 67.5 11.5c52.667 0 97.667 -12.333 135 -37l-23 -52c-14 9.33301 -29.833 16.833 -47.5 22.5s-35.167 8.5 -52.5 8.5c-31.333 0 -54.333 -8.33301 -69 -25s-22 -36.667 -22 -60c0 -20.667 5.66699 -37 17 -49s25.5 -22.5 42.5 -31.5s35.5 -17.5 55.5 -25.5
s38.5 -18 55.5 -30s31.167 -27.5 42.5 -46.5s17 -43.833 17 -74.5z" />
    <glyph glyph-name="t" unicode="t" horiz-adv-x="321" 
d="M283 4c-14 -6 -31.666 -9.00098 -52.999 -9.00098c-38.667 0 -69.834 11.5 -93.501 34.5s-35.5 56.833 -35.5 101.5v353h-62v55h62v124l88 27v-151h94v-55h-94v-353c0 -23.333 5.66699 -41.666 17 -54.999s28 -20 50 -20c10.667 0 19.667 1.33301 27 4v-56z" />
    <glyph glyph-name="u" unicode="u" horiz-adv-x="524" 
d="M453 30c-20.667 -11.333 -47.833 -20.833 -81.5 -28.5s-68.167 -11.5 -103.5 -11.5c-64.667 0 -113.667 14.167 -147 42.5s-50 72.833 -50 133.5v373h88v-376c0 -75.333 36.667 -113 110 -113c17.333 0 34.833 1.5 52.5 4.5s32.167 7.5 43.5 13.5v471h88v-509z" />
    <glyph glyph-name="v" unicode="v" horiz-adv-x="492" 
d="M287 0h-80l-178 539h94l112 -386c2.66699 -8.66699 5 -18 7 -28s4.33301 -24 7 -42h2c2.66699 18 5 32 7 42s4.33301 19.333 7 28l117 386h83z" />
    <glyph glyph-name="w" unicode="w" horiz-adv-x="773" 
d="M586 0l-76.998 -0.00292969l-109 387c-5.33301 18.667 -9.33301 39.334 -12 62.001h-2c-1.33301 -13.333 -2.83301 -24.666 -4.5 -33.999s-3.83398 -18.666 -6.50098 -27.999l-109 -387h-77l-154 539h91l94 -388c1.33301 -5.33301 3.16602 -14 5.49902 -26
s4.16602 -25.333 5.49902 -40h2c1.33301 12.667 3.5 25.5 6.5 38.5s5.16699 22.167 6.5 27.5l109 388h75l106 -388c3.33301 -11.333 5.83301 -21.833 7.5 -31.5s3.16699 -21.167 4.5 -34.5h2c2 14.667 3.83301 26.667 5.5 36s3.83398 19.333 6.50098 30l96 388h82z" />
    <glyph glyph-name="x" unicode="x" horiz-adv-x="475" 
d="M353 0l-117 220h-2l-119 -220h-90l167 279l-150 260h93l104 -198h2l107 198h84l-149 -254l167 -285h-97z" />
    <glyph glyph-name="y" unicode="y" horiz-adv-x="492" 
d="M215 -215l-94 0.00195312l89 215l-181 539h94l113 -391c2.66699 -8.66699 5.16699 -19.834 7.5 -33.501s3.83301 -24.834 4.5 -33.501h2c1.33301 8.66699 3.5 20 6.5 34s5.83301 25 8.5 33l117 391h83z" />
    <glyph glyph-name="z" unicode="z" horiz-adv-x="417" 
d="M30 0l227 484h-210v55h323l-225 -484h233v-55h-348z" />
    <glyph glyph-name="braceleft" unicode="{" horiz-adv-x="357" 
d="M293 -215c-61.333 0 -106.998 15.9971 -136.998 47.9971s-45 77.333 -45 136v183c0 32 -4.66699 57.167 -14 75.5s-27.333 29.5 -54 33.5v51c26.667 4 44.667 15.333 54 34s14 44 14 76v179c0 58.667 15 104 45 136s75.667 48 137 48h18v-51
c-46 0 -77.667 -11.5 -95 -34.5s-26 -55.5 -26 -97.5v-178c0 -37.333 -5.16699 -66.666 -15.5 -87.999s-29.5 -37.333 -57.5 -48v-2c28 -10.667 47.167 -26.667 57.5 -48s15.5 -50.666 15.5 -87.999v-182c0 -20 2 -38.167 6 -54.5s10.667 -30.166 20 -41.499
s21.666 -20 36.999 -26s34.666 -9 57.999 -9v-52h-18z" />
    <glyph glyph-name="bar" unicode="|" horiz-adv-x="228" 
d="M78 -215v1000h72v-1000h-72z" />
    <glyph glyph-name="braceright" unicode="}" horiz-adv-x="357" 
d="M314 261c-26.667 -4 -44.665 -15.1641 -53.998 -33.4971s-14 -43.5 -14 -75.5v-183c0 -58.667 -15.167 -104 -45.5 -136s-76.166 -48 -137.499 -48h-17v52c23.333 0 42.666 3 57.999 9s27.666 14.667 36.999 26s16 25.166 20 41.499s6 34.5 6 54.5v182
c0 37.333 5 66.666 15 87.999s29 37.333 57 48v2c-28 10.667 -47 26.667 -57 48s-15 50.666 -15 87.999v178c0 42 -8.66699 74.5 -26 97.5s-49 34.5 -95 34.5v51h17c61.333 0 107.166 -16 137.499 -48s45.5 -77.333 45.5 -136v-179c0 -32 4.66699 -57.333 14 -76
s27.333 -30 54 -34v-51z" />
    <glyph glyph-name="asciitilde" unicode="~" horiz-adv-x="482" 
d="M426 395c-5.33301 -32.667 -17 -59.834 -35 -81.501s-43 -32.5 -75 -32.5c-15.333 0 -29 3.33301 -41 10s-23.5 14 -34.5 22s-22.167 15.333 -33.5 22s-24.333 10 -39 10c-17.333 0 -30.833 -5.66699 -40.5 -17s-16.834 -26 -21.501 -44l-50 18
c5.33301 32.667 17 59.834 35 81.501s43 32.5 75 32.5c15.333 0 29 -3.33301 41 -10s23.5 -14 34.5 -22s22.167 -15.333 33.5 -22s24.333 -10 39 -10c17.333 0 30.833 5.83301 40.5 17.5s16.834 26.5 21.501 44.5z" />
    <glyph glyph-name="uni00A0" unicode="&#xa0;" horiz-adv-x="276" 
 />
    <glyph glyph-name="exclamdown" unicode="&#xa1;" horiz-adv-x="278" 
d="M201 422c0 -15.333 -5.66699 -28.666 -17 -39.999s-24.666 -17 -39.999 -17s-28.666 5.66699 -39.999 17s-17 24.666 -17 39.999s5.66699 28.666 17 39.999s24.666 17 39.999 17s28.666 -5.66699 39.999 -17s17 -24.666 17 -39.999zM93 -215l18 460h66l18 -460h-102z" />
    <glyph glyph-name="cent" unicode="&#xa2;" 
d="M414 135c-10 -7.33301 -23.833 -13.8311 -41.5 -19.498s-38.5 -9.16699 -62.5 -10.5v-105h-52v107c-52 7.33301 -93.333 31.166 -124 71.499s-46 95.833 -46 166.5c0 67.333 15.667 121.5 47 162.5s72.333 65.5 123 73.5v107h52v-105c22 -0.666992 41.667 -3.5 59 -8.5
s32.333 -11.833 45 -20.5l-21 -49c-9.33301 5.33301 -20.333 10.166 -33 14.499s-28.334 6.5 -47.001 6.5c-24 0 -44.667 -4.5 -62 -13.5s-31.5 -21.333 -42.5 -37s-19.167 -34.5 -24.5 -56.5s-8 -46 -8 -72c0 -55.333 11.333 -99.5 34 -132.5s56.334 -49.5 101.001 -49.5
c18 0 33.667 2 47 6s25 9 35 15z" />
    <glyph glyph-name="sterling" unicode="&#xa3;" 
d="M69 0c14 16.667 27.3311 34.501 39.998 53.501s23.834 38.667 33.501 59s17.334 41.333 23.001 63s8.5 43.5 8.5 65.5c0 17.333 -1.16699 33.666 -3.5 48.999s-5.16602 29.666 -8.49902 42.999h-94v58h76c-5.33301 17.333 -9.83301 34.5 -13.5 51.5s-5.5 35.5 -5.5 55.5
c0 29.333 4.5 56.166 13.5 80.499s22.333 45.333 40 63s39.167 31.5 64.5 41.5s54.333 15 87 15c28.667 0 55.5 -3.16699 80.5 -9.5s46.167 -14.833 63.5 -25.5l-23 -55c-13.333 7.33301 -29.166 13.5 -47.499 18.5s-38.5 7.5 -60.5 7.5
c-44.667 0 -77.834 -13.5 -99.501 -40.5s-32.5 -60.5 -32.5 -100.5c0 -19.333 1.33301 -37.166 4 -53.499s6 -32.5 10 -48.5h157v-58h-143c2.66699 -13.333 4.83398 -27.166 6.50098 -41.499s2.5 -30.5 2.5 -48.5c0 -14 -1.66699 -29 -5 -45s-7.83301 -31.667 -13.5 -47
s-11.834 -29.833 -18.501 -43.5s-13.334 -25.167 -20.001 -34.5h287v-73h-409z" />
    <glyph glyph-name="currency" unicode="&#xa4;" 
d="M449 118l-69.9961 70c-15.333 -15.333 -32.5 -27.5 -51.5 -36.5s-40.167 -13.5 -63.5 -13.5s-44.5 4.5 -63.5 13.5s-36.167 21.167 -51.5 36.5l-70 -70l-40 39l75 75c-8.66699 16 -15.334 33.333 -20.001 52s-7 38.667 -7 60s2.33301 41.166 7 59.499
s11.334 35.5 20.001 51.5l-75 75l40 39l69 -70c15.333 15.333 32.666 27.5 51.999 36.5s40.666 13.5 63.999 13.5s44.666 -4.5 63.999 -13.5s36.666 -21.167 51.999 -36.5l69 70l40 -39l-75 -75c8.66699 -16 15.334 -33.167 20.001 -51.5s7 -38.166 7 -59.499
s-2.33301 -41.333 -7 -60s-11.334 -36 -20.001 -52l75 -75zM366.004 345c0 44.667 -9.66699 80.834 -29 108.501s-43.666 41.5 -72.999 41.5s-53.666 -13.833 -72.999 -41.5s-29 -63.834 -29 -108.501s9.66699 -81 29 -109s43.666 -42 72.999 -42s53.666 14 72.999 42
s29 64.333 29 109z" />
    <glyph glyph-name="yen" unicode="&#xa5;" 
d="M382 449h97v-44h-118l-54 -115h172v-44h-172v-246h-86v246h-172v44h172l-54 115h-118v44h97l-112 239h93l139 -334h2l144 334h82z" />
    <glyph glyph-name="brokenbar" unicode="&#xa6;" horiz-adv-x="228" 
d="M78 390v395h72v-395h-72zM78 -215v395h72v-395h-72z" />
    <glyph glyph-name="section" unicode="&#xa7;" horiz-adv-x="532" 
d="M472 224c0 -36 -11.3369 -67.5 -34.0039 -94.5s-50 -49.5 -82 -67.5c19.333 -16.667 35.5 -35 48.5 -55s19.5 -44 19.5 -72c0 -22.667 -4.66699 -43.667 -14 -63s-22.166 -36.166 -38.499 -50.499s-35.5 -25.5 -57.5 -33.5s-46 -12 -72 -12s-52.167 3.33301 -78.5 10
s-48.5 16 -66.5 28l24 58c14.667 -10 32 -17.833 52 -23.5s39.667 -8.5 59 -8.5c32 0 57.333 9 76 27s28 40.667 28 68c0 22 -6.83301 41.167 -20.5 57.5s-30.667 31.666 -51 45.999s-42.5 28.666 -66.5 42.999s-46.167 30.333 -66.5 48s-37.333 38.334 -51 62.001
s-20.5 51.834 -20.5 84.501c0 36 11 67.667 33 95s49 50.333 81 69c-15.333 14.667 -28 30.834 -38 48.501s-15 38.5 -15 62.5c0 20.667 4.16699 40 12.5 58s19.833 33.667 34.5 47s32.334 23.666 53.001 30.999s43.334 11 68.001 11s48.334 -3.16699 71.001 -9.5
s42.667 -15.5 60 -27.5l-23 -55c-14 9.33301 -29.667 17 -47 23s-35 9 -53 9c-32 0 -55.333 -8.66699 -70 -26s-22 -37.666 -22 -60.999c0 -21.333 6.66699 -39.833 20 -55.5s29.833 -30.334 49.5 -44.001s41 -27.334 64 -41.001s44.333 -29 64 -46
s36.167 -36.833 49.5 -59.5s20 -49.667 20 -81zM395.996 216c0 23.333 -5.49805 43.835 -16.498 61.502s-25.167 33.667 -42.5 48s-36.333 27.833 -57 40.5l-61 39c-23.333 -14 -43 -30.667 -59 -50s-24 -42.333 -24 -69c0 -23.333 5.16699 -43.833 15.5 -61.5
s23.666 -33.834 39.999 -48.501s34.666 -28.334 54.999 -41.001l60.5 -38c24.667 13.333 45.667 29.5 63 48.5s26 42.5 26 70.5z" />
    <glyph glyph-name="dieresis" unicode="&#xa8;" horiz-adv-x="242" 
d="M245 654c0 -12 -4.33301 -22.333 -13 -31s-19 -13 -31 -13s-22.333 4.33301 -31 13s-13 19 -13 31s4.33301 22.333 13 31s19 13 31 13s22.333 -4.33301 31 -13s13 -19 13 -31zM85 654c0 -12 -4.33301 -22.333 -13 -31s-19 -13 -31 -13s-22.333 4.33301 -31 13
s-13 19 -13 31s4.33301 22.333 13 31s19 13 31 13s22.333 -4.33301 31 -13s13 -19 13 -31z" />
    <glyph glyph-name="copyright" unicode="&#xa9;" horiz-adv-x="822" 
d="M767 344c0 -49.333 -9.33301 -95.5 -28 -138.5s-44.167 -80.5 -76.5 -112.5s-70.166 -57.333 -113.499 -76s-89.333 -28 -138 -28c-49.333 0 -95.5 9.33301 -138.5 28s-80.667 44 -113 76s-57.833 69.5 -76.5 112.5s-28 89.167 -28 138.5c0 48.667 9.33301 94.667 28 138
s44.167 81 76.5 113s70 57.333 113 76s89.167 28 138.5 28c48.667 0 94.667 -9.33301 138 -28s81.166 -44 113.499 -76s57.833 -69.667 76.5 -113s28 -89.333 28 -138zM707 345c0 42 -7.66699 81.5 -23 118.5s-36.333 69.333 -63 97s-58 49.667 -94 66
s-74.667 24.5 -116 24.5s-80 -8.16699 -116 -24.5s-67.333 -38.333 -94 -66s-47.667 -60 -63 -97s-23 -76.5 -23 -118.5s7.66699 -81.5 23 -118.5s36.333 -69.333 63 -97s58 -49.667 94 -66s74.667 -24.5 116 -24.5s80 8.16699 116 24.5s67.333 38.333 94 66
s47.667 60 63 97s23 76.5 23 118.5zM505 165c-10 -6.66699 -23.3369 -11.835 -40.0039 -15.502s-33.667 -5.5 -51 -5.5c-28 0 -52.833 5.33301 -74.5 16s-39.834 25.334 -54.501 44.001s-25.834 40.167 -33.501 64.5s-11.5 50.5 -11.5 78.5
c0 26.667 3.83301 52.334 11.5 77.001s18.834 46.334 33.501 65.001s32.834 33.5 54.501 44.5s46.5 16.5 74.5 16.5c20.667 0 38.334 -1.83301 53.001 -5.5s27.334 -8.83398 38.001 -15.501l-16 -37c-7.33301 4 -16.666 7.33301 -27.999 10s-23.666 4 -36.999 4
c-21.333 0 -39.666 -4.5 -54.999 -13.5s-27.833 -21 -37.5 -36s-16.834 -32 -21.501 -51s-7 -38.5 -7 -58.5c0 -20.667 2.5 -40.5 7.5 -59.5s12.5 -35.667 22.5 -50s22.5 -25.833 37.5 -34.5s32.833 -13 53.5 -13c13.333 0 25.333 1.33301 36 4s20 6 28 10z" />
    <glyph glyph-name="ordfeminine" unicode="&#xaa;" horiz-adv-x="378" 
d="M309 344c-15.333 -8 -33.832 -14.332 -55.499 -18.999s-44.5 -7 -68.5 -7c-44 0 -78.667 9.16699 -104 27.5s-38 46.166 -38 83.499c0 22 5.16699 40.833 15.5 56.5s24.666 28.834 42.999 39.501s39.833 19 64.5 25s51.334 10.333 80.001 13v21c0 46 -25 69 -75 69
c-15.333 0 -31 -2 -47 -6s-30.667 -9.66699 -44 -17l-16 41c14.667 7.33301 31.667 13.666 51 18.999s40.666 8 63.999 8c40 0 71.667 -9.66699 95 -29s35 -50 35 -92v-233zM246.001 527.001c-44 -5.33301 -78.333 -14.832 -103 -28.499s-37 -36.167 -37 -67.5
c0 -23.333 7 -41.5 21 -54.5s35 -19.5 63 -19.5c10.667 0 21 1.16699 31 3.5s18.333 5.16602 25 8.49902v158z" />
    <glyph glyph-name="guillemotleft" unicode="&#xab;" horiz-adv-x="482" 
d="M368 108l-130 226l130 226l52 -31l-113 -195l113 -195zM182 108l-130 226l130 226l52 -31l-113 -195l113 -195z" />
    <glyph glyph-name="logicalnot" unicode="&#xac;" horiz-adv-x="518" 
d="M388 138v165h-326v62h394v-227h-68z" />
    <glyph glyph-name="uni00AD" unicode="&#xad;" horiz-adv-x="344" 
d="M59 299v70h226v-70h-226z" />
    <glyph glyph-name="registered" unicode="&#xae;" horiz-adv-x="822" 
d="M767 344c0 -49.333 -9.33301 -95.5 -28 -138.5s-44.167 -80.5 -76.5 -112.5s-70.166 -57.333 -113.499 -76s-89.333 -28 -138 -28c-49.333 0 -95.5 9.33301 -138.5 28s-80.667 44 -113 76s-57.833 69.5 -76.5 112.5s-28 89.167 -28 138.5c0 48.667 9.33301 94.667 28 138
s44.167 81 76.5 113s70 57.333 113 76s89.167 28 138.5 28c48.667 0 94.667 -9.33301 138 -28s81.166 -44 113.499 -76s57.833 -69.667 76.5 -113s28 -89.333 28 -138zM707 345c0 42 -7.66699 81.5 -23 118.5s-36.333 69.333 -63 97s-58 49.667 -94 66
s-74.667 24.5 -116 24.5s-80 -8.16699 -116 -24.5s-67.333 -38.333 -94 -66s-47.667 -60 -63 -97s-23 -76.5 -23 -118.5s7.66699 -81.5 23 -118.5s36.333 -69.333 63 -97s58 -49.667 94 -66s74.667 -24.5 116 -24.5s80 8.16699 116 24.5s67.333 38.333 94 66
s47.667 60 63 97s23 76.5 23 118.5zM488 151l-71.9971 128.999c-7.33301 13.333 -15.833 24.5 -25.5 33.5s-21.167 15.167 -34.5 18.5v-181h-58v383c13.333 7.33301 29.166 12.833 47.499 16.5s36.833 5.5 55.5 5.5c45.333 0 80.166 -9.66699 104.499 -29s36.5 -48 36.5 -86
c0 -28.667 -9.83301 -52.667 -29.5 -72s-45.5 -31.666 -77.5 -36.999v-2c8 -6.66699 15.167 -14 21.5 -22s12.166 -16.333 17.499 -25l82 -132h-68zM484.003 439.999c0 53.333 -27.668 80 -83.001 80c-16.667 0 -31.667 -2.33301 -45 -7v-156c5.33301 -1.33301 11 -2 17 -2
h18c28.667 0 51.334 8 68.001 24s25 36.333 25 61z" />
    <glyph glyph-name="macron" unicode="&#xaf;" horiz-adv-x="242" 
d="M-4 616v53h250v-53h-250z" />
    <glyph glyph-name="degree" unicode="&#xb0;" horiz-adv-x="426" 
d="M362 549c0 -20.667 -4 -40 -12 -58s-18.667 -33.833 -32 -47.5s-29 -24.334 -47 -32.001s-37.333 -11.5 -58 -11.5s-40 3.83301 -58 11.5s-33.833 18.334 -47.5 32.001s-24.334 29.5 -32.001 47.5s-11.5 37.333 -11.5 58s3.83301 40 11.5 58s18.334 33.667 32.001 47
s29.5 24 47.5 32s37.333 12 58 12s40 -4 58 -12s33.667 -18.667 47 -32s24 -29 32 -47s12 -37.333 12 -58zM310 549c0 14 -2.5 27 -7.5 39s-11.833 22.5 -20.5 31.5s-19 16.167 -31 21.5s-24.667 8 -38 8s-26 -2.66699 -38 -8s-22.333 -12.5 -31 -21.5
s-15.5 -19.5 -20.5 -31.5s-7.5 -25 -7.5 -39c0 -28 9.33301 -51.5 28 -70.5s41.667 -28.5 69 -28.5s50.333 9.5 69 28.5s28 42.5 28 70.5z" />
    <glyph glyph-name="plusminus" unicode="&#xb1;" horiz-adv-x="518" 
d="M293 318v-162h-68v162h-163v59h163v162h68v-162h163v-59h-163zM62 0v59h394v-59h-394z" />
    <glyph glyph-name="twosuperior" unicode="&#xb2;" horiz-adv-x="338" 
d="M21 476l152 214c13.333 19.333 22.333 35.666 27 48.999s7 26.333 7 39c0 46 -26.667 69 -80 69c-13.333 0 -26.833 -1.5 -40.5 -4.5s-25.5 -7.16699 -35.5 -12.5l-17 42c14.667 7.33301 31.167 13 49.5 17s37.5 6 57.5 6c47.333 0 81.833 -10.167 103.5 -30.5
s32.5 -47.166 32.5 -80.499c0 -30 -18 -69 -54 -117l-104 -138h163v-53h-261z" />
    <glyph glyph-name="threesuperior" unicode="&#xb3;" horiz-adv-x="338" 
d="M288 596c0 -19.333 -3.66406 -36.8359 -10.9971 -52.5029s-17.5 -29 -30.5 -40s-28.5 -19.5 -46.5 -25.5s-37.333 -9 -58 -9s-41 1.83301 -61 5.5s-37 9.16699 -51 16.5l18 44c10.667 -5.33301 23.667 -9.66602 39 -12.999s30 -5 44 -5c27.333 0 48.833 7 64.5 21
s23.5 33.667 23.5 59c0 14.667 -2.83301 27 -8.5 37s-13.334 18.167 -23.001 24.5s-20.834 11 -33.501 14s-26.334 4.5 -41.001 4.5h-12v37c31.333 2.66699 56.5 10.667 75.5 24s28.5 31 28.5 53c0 20.667 -6.66699 35.334 -20 44.001s-29.666 13 -48.999 13
c-28 0 -54.333 -5.33301 -79 -16l-17 41c31.333 14.667 66.666 22 105.999 22c36 0 65.833 -8.16699 89.5 -24.5s35.5 -39.833 35.5 -70.5c0 -12.667 -2.33301 -24 -7 -34s-10.5 -18.667 -17.5 -26s-15 -13.666 -24 -18.999s-17.833 -9.66602 -26.5 -12.999v-2
c10.667 -3.33301 21.5 -7.66602 32.5 -12.999s21 -12.333 30 -21s16.167 -19.334 21.5 -32.001s8 -27.334 8 -44.001z" />
    <glyph glyph-name="acute" unicode="&#xb4;" horiz-adv-x="242" 
d="M119 599h-51l73 137c6.66699 5.33301 14.167 9.16602 22.5 11.499s16.833 3.5 25.5 3.5c9.33301 0 17.833 -1.66699 25.5 -5s13.5 -8.66602 17.5 -15.999z" />
    <glyph glyph-name="mu" unicode="&#xb5;" horiz-adv-x="527" 
d="M456 42c-23.333 -16 -50.167 -28.667 -80.5 -38s-61.833 -14 -94.5 -14c-20.667 0 -41.5 2.33301 -62.5 7s-39.833 12 -56.5 22v-234h-88v754h88v-458c14 -10 30.5 -17.833 49.5 -23.5s38.167 -8.5 57.5 -8.5c18.667 0 36.667 2.66699 54 8s32.333 12.333 45 21v461h88
v-497z" />
    <glyph glyph-name="paragraph" unicode="&#xb6;" horiz-adv-x="604" 
d="M446 -215l-0.00292969 838c-18 5.33301 -37.5 9.5 -58.5 12.5s-41.5 4.5 -61.5 4.5c-9.33301 0 -17.666 -0.333008 -24.999 -1s-16.666 -1.66699 -27.999 -3v-851h-80v508c-49.333 13.333 -86.333 37.833 -111 73.5s-37 75.5 -37 119.5c0 39.333 8 72.5 24 99.5
s37.167 48.833 63.5 65.5s56.333 28.667 90 36s68.167 11 103.5 11c36.667 0 72.334 -3.33301 107.001 -10s65.667 -15.667 93 -27v-876h-80z" />
    <glyph glyph-name="periodcentered" unicode="&#xb7;" horiz-adv-x="250" 
d="M182 333c0 -15.333 -5.66699 -28.666 -17 -39.999s-24.666 -17 -39.999 -17s-28.666 5.66699 -39.999 17s-17 24.666 -17 39.999s5.66699 28.666 17 39.999s24.666 17 39.999 17s28.666 -5.66699 39.999 -17s17 -24.666 17 -39.999z" />
    <glyph glyph-name="cedilla" unicode="&#xb8;" horiz-adv-x="242" 
d="M244 -124c0 -25.333 -14.832 -44.6689 -44.499 -58.002s-70.834 -20 -123.501 -20c-18 0 -33.667 0.666992 -47 2s-22.333 2.33301 -27 3l18 36c9.33301 -1.33301 17.333 -2.16602 24 -2.49902s14.667 -0.5 24 -0.5c30 0 55.333 3.33301 76 10s31 16.667 31 30
c0 21.333 -23.667 32 -71 32c-12 0 -21.833 -0.166992 -29.5 -0.5s-15.5 -0.833008 -23.5 -1.5l16 34c6 0.666992 14 1.33398 24 2.00098s22.667 1 38 1c42 0 71.667 -6.33301 89 -19s26 -28.667 26 -48z" />
    <glyph glyph-name="onesuperior" unicode="&#xb9;" horiz-adv-x="338" 
d="M169 476v336.002c-12 -6.66699 -28 -12.334 -48 -17.001s-38.667 -7.66699 -56 -9l-9 39c30 4 57 11.167 81 21.5s41.667 24.166 53 41.499h48v-412h-69z" />
    <glyph glyph-name="ordmasculine" unicode="&#xba;" horiz-adv-x="392" 
d="M343 508c0 -25.333 -2.83301 -49.333 -8.5 -72s-14.5 -42.834 -26.5 -60.501s-27.333 -31.667 -46 -42s-40.667 -15.5 -66 -15.5s-47.333 5.16699 -66 15.5s-34 24.333 -46 42s-20.833 37.834 -26.5 60.501s-8.5 46.667 -8.5 72c0 24.667 2.83301 48.5 8.5 71.5
s14.5 43.333 26.5 61s27.333 31.667 46 42s40.667 15.5 66 15.5s47.333 -5.16699 66 -15.5s34 -24.333 46 -42s20.833 -38 26.5 -61s8.5 -46.833 8.5 -71.5zM277 509c0 18 -1.16699 35.667 -3.5 53s-6.66602 32.666 -12.999 45.999s-14.666 24 -24.999 32s-23.5 12 -39.5 12
s-29.167 -4 -39.5 -12s-18.666 -18.667 -24.999 -32s-10.666 -28.666 -12.999 -45.999s-3.5 -35 -3.5 -53s1.16699 -35.667 3.5 -53s6.66602 -32.666 12.999 -45.999s14.666 -24 24.999 -32s23.5 -12 39.5 -12s29.167 4 39.5 12s18.666 18.667 24.999 32
s10.666 28.666 12.999 45.999s3.5 35 3.5 53z" />
    <glyph glyph-name="guillemotright" unicode="&#xbb;" horiz-adv-x="482" 
d="M300 108l-52 31l113 195l-113 195l52 31l130 -226zM114 108l-52 31l113 195l-113 195l52 31l130 -226z" />
    <glyph glyph-name="onequarter" unicode="&#xbc;" horiz-adv-x="806" 
d="M713 91v-91h-61v91h-172v40l170 281h63v-282h35v-39h-35zM281 -12l-49 23l315 689l49 -23zM169 276v336.002c-12 -6.66699 -28 -12.334 -48 -17.001s-38.667 -7.66699 -56 -9l-9 39c30 4 57 11.167 81 21.5s41.667 24.166 53 41.499h48v-412h-69zM653 351.002
c-2 -4.66699 -5.66699 -12.6689 -11 -24.002s-11.333 -22.666 -18 -33.999l-96 -163h125v159c0 10.667 0.166992 21.334 0.5 32.001s0.833008 20.667 1.5 30h-2z" />
    <glyph glyph-name="onehalf" unicode="&#xbd;" horiz-adv-x="806" 
d="M489 0l152 214c13.333 19.333 22.333 35.666 27 48.999s7 26.333 7 39c0 46 -26.667 69 -80 69c-13.333 0 -26.666 -1.5 -39.999 -4.5s-25 -7.16699 -35 -12.5l-17 42c14.667 7.33301 31.167 13 49.5 17s37.166 6 56.499 6c47.333 0 81.833 -10.167 103.5 -30.5
s32.5 -47.166 32.5 -80.499c0 -15.333 -4.16699 -32.5 -12.5 -51.5s-21.833 -40.833 -40.5 -65.5l-105 -138h163v-53h-261zM242 -12l-49 23l314 689l49 -23zM169 276v336.002c-12 -6.66699 -28 -12.334 -48 -17.001s-38.667 -7.66699 -56 -9l-9 39c30 4 57 11.167 81 21.5
s41.667 24.166 53 41.499h48v-412h-69z" />
    <glyph glyph-name="threequarters" unicode="&#xbe;" horiz-adv-x="806" 
d="M713 91v-91h-61v91h-172v40l170 281h63v-282h35v-39h-35zM288 -12l-49 23l315 689l49 -23zM288 396c0 -19.333 -3.66406 -36.8359 -10.9971 -52.5029s-17.5 -29 -30.5 -40s-28.5 -19.5 -46.5 -25.5s-37.333 -9 -58 -9s-41 1.83301 -61 5.5s-37 9.16699 -51 16.5l18 44
c10.667 -5.33301 23.667 -9.66602 39 -12.999s30 -5 44 -5c27.333 0 48.833 7 64.5 21s23.5 33.667 23.5 59c0 14.667 -2.83301 27 -8.5 37s-13.334 18.167 -23.001 24.5s-20.834 11 -33.501 14s-26.334 4.5 -41.001 4.5h-12v37c31.333 2.66699 56.5 10.667 75.5 24
s28.5 31 28.5 53c0 20.667 -6.66699 35.334 -20 44.001s-29.666 13 -48.999 13c-28 0 -54.333 -5.33301 -79 -16l-17 41c31.333 14.667 66.666 22 105.999 22c36 0 65.833 -8.16699 89.5 -24.5s35.5 -39.833 35.5 -70.5c0 -12.667 -2.33301 -24 -7 -34
s-10.5 -18.667 -17.5 -26s-15 -13.666 -24 -18.999s-17.833 -9.66602 -26.5 -12.999v-2c10.667 -3.33301 21.5 -7.66602 32.5 -12.999s21 -12.333 30 -21s16.167 -19.334 21.5 -32.001s8 -27.334 8 -44.001zM653.003 350.997c-4.66699 -10.667 -9.16699 -20.333 -13.5 -29
s-9.5 -18.334 -15.5 -29.001l-96 -163h125v159c0 10.667 0.166992 21.334 0.5 32.001s0.833008 20.667 1.5 30h-2z" />
    <glyph glyph-name="questiondown" unicode="&#xbf;" horiz-adv-x="406" 
d="M295 422c0 -16 -5.5 -29.5 -16.5 -40.5s-24.5 -16.5 -40.5 -16.5s-29.667 5.5 -41 16.5s-17 24.5 -17 40.5s5.66699 29.5 17 40.5s25 16.5 41 16.5s29.5 -5.5 40.5 -16.5s16.5 -24.5 16.5 -40.5zM388 -188c-18 -11.333 -40.1699 -20.3311 -66.5029 -26.998
s-52.166 -10 -77.499 -10c-59.333 0 -106.5 14.333 -141.5 43s-52.5 68 -52.5 118c0 22 4.83301 42 14.5 60s21.834 33.667 36.501 47s30.5 24.666 47.5 33.999s32.833 16 47.5 20l8 148h67l9 -175c-14.667 -3.33301 -30.167 -8.5 -46.5 -15.5s-31.333 -15.667 -45 -26
s-25 -22.833 -34 -37.5s-13.5 -31.334 -13.5 -50.001c0 -30 9.33301 -54.667 28 -74s48.334 -29 89.001 -29c17.333 0 35.833 2.33301 55.5 7s36.167 11 49.5 19z" />
    <glyph glyph-name="Agrave" unicode="&#xc0;" horiz-adv-x="590" 
d="M474 0l-64 208h-239l-65 -208h-87l232 688h87l233 -688h-97zM313 523c-4 12.667 -7.83203 27.334 -11.499 44.001s-6.5 31.667 -8.5 45h-2c-2 -11.333 -4.83301 -25.333 -8.5 -42s-7.83398 -32.334 -12.501 -47.001l-81 -260h204zM277.001 747l-113 131.001
c4 7.33301 9.83301 12.666 17.5 15.999s16.167 5 25.5 5c18.667 0 34.667 -5 48 -15l73 -137h-51z" />
    <glyph glyph-name="Aacute" unicode="&#xc1;" horiz-adv-x="590" 
d="M474 0l-64 208h-239l-65 -208h-87l232 688h87l233 -688h-97zM313 523c-4 12.667 -7.83203 27.334 -11.499 44.001s-6.5 31.667 -8.5 45h-2c-2 -11.333 -4.83301 -25.333 -8.5 -42s-7.83398 -32.334 -12.501 -47.001l-81 -260h204zM313.001 747h-51l73 137
c6.66699 5.33301 14.167 9.16602 22.5 11.499s16.833 3.5 25.5 3.5c9.33301 0 17.833 -1.66699 25.5 -5s13.5 -8.66602 17.5 -15.999z" />
    <glyph glyph-name="Acircumflex" unicode="&#xc2;" horiz-adv-x="590" 
d="M474 0l-64 208h-239l-65 -208h-87l232 688h87l233 -688h-97zM313 523c-4 12.667 -7.83203 27.334 -11.499 44.001s-6.5 31.667 -8.5 45h-2c-2 -11.333 -4.83301 -25.333 -8.5 -42s-7.83398 -32.334 -12.501 -47.001l-81 -260h204zM392.001 743l-96.998 82l-97 -82l-30 26
l93 100c4.66699 5.33301 10.167 9.16602 16.5 11.499s12.166 3.5 17.499 3.5s11.166 -1.16699 17.499 -3.5s11.833 -6.16602 16.5 -11.499l93 -100z" />
    <glyph glyph-name="Atilde" unicode="&#xc3;" horiz-adv-x="590" 
d="M474 0l-64 208h-239l-65 -208h-87l232 688h87l233 -688h-97zM313 523c-4 12.667 -7.83203 27.334 -11.499 44.001s-6.5 31.667 -8.5 45h-2c-2 -11.333 -4.83301 -25.333 -8.5 -42s-7.83398 -32.334 -12.501 -47.001l-81 -260h204zM424.001 834
c-4 -23.333 -12.0059 -42.668 -24.0059 -58.001s-29.667 -23 -53 -23c-11.333 0 -21.166 2.16699 -29.499 6.5s-16.166 9 -23.499 14s-14.833 9.66699 -22.5 14s-16.167 6.5 -25.5 6.5c-11.333 0 -20.166 -3.66699 -26.499 -11s-10.833 -16.666 -13.5 -27.999l-40 13
c4 23.333 12 42.5 24 57.5s29.667 22.5 53 22.5c10.667 0 20.334 -2.16699 29.001 -6.5s16.834 -9 24.501 -14s15.334 -9.66699 23.001 -14s16.167 -6.5 25.5 -6.5c11.333 0 20 3.83301 26 11.5s10.333 17.167 13 28.5z" />
    <glyph glyph-name="Adieresis" unicode="&#xc4;" horiz-adv-x="590" 
d="M474 0l-64 208h-239l-65 -208h-87l232 688h87l233 -688h-97zM313 523c-4 12.667 -7.83203 27.334 -11.499 44.001s-6.5 31.667 -8.5 45h-2c-2 -11.333 -4.83301 -25.333 -8.5 -42s-7.83398 -32.334 -12.501 -47.001l-81 -260h204zM260.001 803
c0 -12 -4.33301 -22.333 -13 -31s-19 -13 -31 -13s-22.333 4.33301 -31 13s-13 19 -13 31s4.33301 22.333 13 31s19 13 31 13s22.333 -4.33301 31 -13s13 -19 13 -31zM419.001 803c0 -12 -4.33301 -22.333 -13 -31s-19 -13 -31 -13s-22.333 4.33301 -31 13s-13 19 -13 31
s4.33301 22.333 13 31s19 13 31 13s22.333 -4.33301 31 -13s13 -19 13 -31z" />
    <glyph glyph-name="Aring" unicode="&#xc5;" horiz-adv-x="590" 
d="M474 0l-64 208h-239l-65 -208h-87l232 688h87l233 -688h-97zM313 523c-4 12.667 -7.83203 27.334 -11.499 44.001s-6.5 31.667 -8.5 45h-2c-2 -11.333 -4.83301 -25.333 -8.5 -42s-7.83398 -32.334 -12.501 -47.001l-81 -260h204zM375.001 824
c0 -22.667 -7.83301 -41.834 -23.5 -57.501s-34.834 -23.5 -57.501 -23.5s-41.834 7.83301 -57.501 23.5s-23.5 34.834 -23.5 57.501s7.83301 41.834 23.5 57.501s34.834 23.5 57.501 23.5s41.834 -7.83301 57.501 -23.5s23.5 -34.834 23.5 -57.501zM339.001 824
c0 12.667 -4.33301 23.5 -13 32.5s-19.334 13.5 -32.001 13.5s-23.334 -4.5 -32.001 -13.5s-13 -19.833 -13 -32.5s4.33301 -23.5 13 -32.5s19.334 -13.5 32.001 -13.5s23.334 4.5 32.001 13.5s13 19.833 13 32.5z" />
    <glyph glyph-name="AE" unicode="&#xc6;" horiz-adv-x="752" 
d="M462 0l-46 208h-241l-83 -208h-88l290 688h371v-62h-264l59 -240h204v-61h-190l65 -263h187v-62h-264zM346 524c-3.33301 16 -6.16699 31.167 -8.5 45.5s-4.5 28.5 -6.5 42.5h-2l-13.5 -44c-4.33301 -14 -9.5 -28.667 -15.5 -44l-103 -261h207z" />
    <glyph glyph-name="Ccedilla" unicode="&#xc7;" horiz-adv-x="479" 
d="M447 28c-18 -12 -38.001 -21.3369 -60.001 -28.0039s-47 -10 -75 -10c-44 0 -82.333 9.83301 -115 29.5s-59.5 45.834 -80.5 78.501s-36.667 70.334 -47 113.001s-15.5 87 -15.5 133s5.16699 90.333 15.5 133s26 80.334 47 113.001s47.833 58.834 80.5 78.501
s71 29.5 115 29.5c28 0 53 -3.33301 75 -10s42 -16 60 -28l-23 -56c-12.667 8 -27.834 14.833 -45.501 20.5s-36.167 8.5 -55.5 8.5c-31.333 0 -57.833 -8.33301 -79.5 -25s-39.5 -38.5 -53.5 -65.5s-24.167 -57.667 -30.5 -92s-9.5 -69.5 -9.5 -105.5s3.16699 -71 9.5 -105
s16.5 -64.5 30.5 -91.5s31.833 -48.667 53.5 -65s47.834 -24.5 78.501 -24.5c19.333 0 37.833 2.83301 55.5 8.5s32.834 12.5 45.501 20.5zM373.999 -124.004c0 -25.333 -14.832 -44.6689 -44.499 -58.002s-70.834 -20 -123.501 -20c-18 0 -33.667 0.666992 -47 2
s-22.333 2.33301 -27 3l18 36c9.33301 -1.33301 17.333 -2.16602 24 -2.49902s14.667 -0.5 24 -0.5c30 0 55.333 3.33301 76 10s31 16.667 31 30c0 21.333 -23.667 32 -71 32c-12 0 -21.833 -0.166992 -29.5 -0.5s-15.5 -0.833008 -23.5 -1.5l16 34
c6 0.666992 14 1.33398 24 2.00098s22.667 1 38 1c42 0 71.667 -6.33301 89 -19s26 -28.667 26 -48z" />
    <glyph glyph-name="Egrave" unicode="&#xc8;" horiz-adv-x="442" 
d="M77 0v688h319v-62h-227v-240h204v-61h-204v-263h227v-62h-319zM231 747l-113 131.001c4 7.33301 9.83301 12.666 17.5 15.999s16.167 5 25.5 5c18.667 0 34.667 -5 48 -15l73 -137h-51z" />
    <glyph glyph-name="Eacute" unicode="&#xc9;" horiz-adv-x="442" 
d="M77 0v688h319v-62h-227v-240h204v-61h-204v-263h227v-62h-319zM245 747h-51l73 137c6.66699 5.33301 14.167 9.16602 22.5 11.499s16.833 3.5 25.5 3.5c9.33301 0 17.833 -1.66699 25.5 -5s13.5 -8.66602 17.5 -15.999z" />
    <glyph glyph-name="Ecircumflex" unicode="&#xca;" horiz-adv-x="442" 
d="M77 0v688h319v-62h-227v-240h204v-61h-204v-263h227v-62h-319zM329 743l-96.998 82l-97 -82l-30 26l93 100c4.66699 5.33301 10.167 9.16602 16.5 11.499s12.166 3.5 17.499 3.5s11.166 -1.16699 17.499 -3.5s11.833 -6.16602 16.5 -11.499l93 -100z" />
    <glyph glyph-name="Edieresis" unicode="&#xcb;" horiz-adv-x="442" 
d="M77 0v688h319v-62h-227v-240h204v-61h-204v-263h227v-62h-319zM199 803c0 -12 -4.33301 -22.333 -13 -31s-19 -13 -31 -13s-22.333 4.33301 -31 13s-13 19 -13 31s4.33301 22.333 13 31s19 13 31 13s22.333 -4.33301 31 -13s13 -19 13 -31zM358 803
c0 -12 -4.33301 -22.333 -13 -31s-19 -13 -31 -13s-22.333 4.33301 -31 13s-13 19 -13 31s4.33301 22.333 13 31s19 13 31 13s22.333 -4.33301 31 -13s13 -19 13 -31z" />
    <glyph glyph-name="Igrave" unicode="&#xcc;" horiz-adv-x="252" 
d="M80 0v688h92v-688h-92zM117 747l-113 131.001c4 7.33301 9.83301 12.666 17.5 15.999s16.167 5 25.5 5c18.667 0 34.667 -5 48 -15l73 -137h-51z" />
    <glyph glyph-name="Iacute" unicode="&#xcd;" horiz-adv-x="252" 
d="M80 0v688h92v-688h-92zM137 747h-51l73 137c6.66699 5.33301 14.167 9.16602 22.5 11.499s16.833 3.5 25.5 3.5c9.33301 0 17.833 -1.66699 25.5 -5s13.5 -8.66602 17.5 -15.999z" />
    <glyph glyph-name="Icircumflex" unicode="&#xce;" horiz-adv-x="252" 
d="M80 0v688h92v-688h-92zM224 743l-96.998 82l-97 -82l-30 26l93 100c4.66699 5.33301 10.167 9.16602 16.5 11.499s12.166 3.5 17.499 3.5s11.166 -1.16699 17.499 -3.5s11.833 -6.16602 16.5 -11.499l93 -100z" />
    <glyph glyph-name="Idieresis" unicode="&#xcf;" horiz-adv-x="252" 
d="M80 0v688h92v-688h-92zM91 803c0 -12 -4.33301 -22.333 -13 -31s-19 -13 -31 -13s-22.333 4.33301 -31 13s-13 19 -13 31s4.33301 22.333 13 31s19 13 31 13s22.333 -4.33301 31 -13s13 -19 13 -31zM251 803c0 -12 -4.33301 -22.333 -13 -31s-19 -13 -31 -13
s-22.333 4.33301 -31 13s-13 19 -13 31s4.33301 22.333 13 31s19 13 31 13s22.333 -4.33301 31 -13s13 -19 13 -31z" />
    <glyph glyph-name="Eth" unicode="&#xd0;" horiz-adv-x="604" 
d="M550 351c0 -55.333 -6.00293 -105.168 -18.0029 -149.501s-29.667 -82.166 -53 -113.499s-52.666 -55.5 -87.999 -72.5s-76.333 -25.5 -123 -25.5c-35.333 0 -69 3.33301 -101 10s-59.333 15.667 -82 27v306h-64v55h64v272c22.667 11.333 49.834 20.5 81.501 27.5
s64.834 10.5 99.501 10.5c90.667 0 160.667 -30.167 210 -90.5s74 -145.833 74 -256.5zM456.997 351.998c0 95.333 -15.999 167 -47.999 215s-81 72 -147 72c-16.667 0 -32.334 -1 -47.001 -3s-27.667 -5.33301 -39 -10v-238h116v-55h-116v-265
c9.33301 -4 21.833 -7.33301 37.5 -10s32.5 -4 50.5 -4c69.333 0 118.833 25.833 148.5 77.5s44.5 125.167 44.5 220.5z" />
    <glyph glyph-name="Ntilde" unicode="&#xd1;" horiz-adv-x="647" 
d="M490 0l-300.001 513.001c-6 10 -12.667 22.5 -20 37.5s-13 27.167 -17 36.5h-2c2 -36 3 -64.333 3 -85v-502h-77v688h96l284 -489c5.33301 -9.33301 11 -19.833 17 -31.5l20 -40.5h2c-1.33301 18.667 -2.16602 33.667 -2.49902 45s-0.5 23.666 -0.5 36.999v479h77v-688
h-80zM453.999 834.001c-4 -23.333 -12.0059 -42.668 -24.0059 -58.001s-29.667 -23 -53 -23c-11.333 0 -21.166 2.16699 -29.499 6.5s-16.166 9 -23.499 14s-14.833 9.66699 -22.5 14s-16.167 6.5 -25.5 6.5c-11.333 0 -20.166 -3.66699 -26.499 -11
s-10.833 -16.666 -13.5 -27.999l-40 13c4 23.333 12 42.5 24 57.5s29.667 22.5 53 22.5c10.667 0 20.334 -2.16699 29.001 -6.5s16.834 -9 24.501 -14s15.334 -9.66699 23.001 -14s16.167 -6.5 25.5 -6.5c11.333 0 20 3.83301 26 11.5s10.333 17.167 13 28.5z" />
    <glyph glyph-name="Ograve" unicode="&#xd2;" horiz-adv-x="606" 
d="M552 344c0 -50 -4.83301 -96.5 -14.5 -139.5s-24.667 -80.333 -45 -112s-46.166 -56.667 -77.499 -75s-68.666 -27.5 -111.999 -27.5s-80.666 9.16699 -111.999 27.5s-57.166 43.333 -77.499 75s-35.333 69 -45 112s-14.5 89.5 -14.5 139.5s4.83301 96.5 14.5 139.5
s24.667 80.333 45 112s46.166 56.667 77.499 75s68.666 27.5 111.999 27.5s80.666 -9.16699 111.999 -27.5s57.166 -43.333 77.499 -75s35.333 -69 45 -112s14.5 -89.5 14.5 -139.5zM459 346c0 38.667 -2.5 75.334 -7.5 110.001s-13.5 65.334 -25.5 92.001
s-28 47.834 -48 63.501s-45 23.5 -75 23.5s-55 -7.83301 -75 -23.5s-36 -36.834 -48 -63.501s-20.5 -57.334 -25.5 -92.001s-7.5 -71.334 -7.5 -110.001s2.5 -75.5 7.5 -110.5s13.5 -65.833 25.5 -92.5s28 -47.834 48 -63.501s45 -23.5 75 -23.5s55 7.83301 75 23.5
s36 36.834 48 63.501s20.5 57.5 25.5 92.5s7.5 71.833 7.5 110.5zM295 748l-113 131.001c4 7.33301 9.83301 12.666 17.5 15.999s16.167 5 25.5 5c18.667 0 34.667 -5 48 -15l73 -137h-51z" />
    <glyph glyph-name="Oacute" unicode="&#xd3;" horiz-adv-x="606" 
d="M552 344c0 -50 -4.83301 -96.5 -14.5 -139.5s-24.667 -80.333 -45 -112s-46.166 -56.667 -77.499 -75s-68.666 -27.5 -111.999 -27.5s-80.666 9.16699 -111.999 27.5s-57.166 43.333 -77.499 75s-35.333 69 -45 112s-14.5 89.5 -14.5 139.5s4.83301 96.5 14.5 139.5
s24.667 80.333 45 112s46.166 56.667 77.499 75s68.666 27.5 111.999 27.5s80.666 -9.16699 111.999 -27.5s57.166 -43.333 77.499 -75s35.333 -69 45 -112s14.5 -89.5 14.5 -139.5zM459 346c0 38.667 -2.5 75.334 -7.5 110.001s-13.5 65.334 -25.5 92.001
s-28 47.834 -48 63.501s-45 23.5 -75 23.5s-55 -7.83301 -75 -23.5s-36 -36.834 -48 -63.501s-20.5 -57.334 -25.5 -92.001s-7.5 -71.334 -7.5 -110.001s2.5 -75.5 7.5 -110.5s13.5 -65.833 25.5 -92.5s28 -47.834 48 -63.501s45 -23.5 75 -23.5s55 7.83301 75 23.5
s36 36.834 48 63.501s20.5 57.5 25.5 92.5s7.5 71.833 7.5 110.5zM313 748h-51l73 137c6.66699 5.33301 14.167 9.16602 22.5 11.499s16.833 3.5 25.5 3.5c9.33301 0 17.833 -1.66699 25.5 -5s13.5 -8.66602 17.5 -15.999z" />
    <glyph glyph-name="Ocircumflex" unicode="&#xd4;" horiz-adv-x="606" 
d="M552 344c0 -50 -4.83301 -96.5 -14.5 -139.5s-24.667 -80.333 -45 -112s-46.166 -56.667 -77.499 -75s-68.666 -27.5 -111.999 -27.5s-80.666 9.16699 -111.999 27.5s-57.166 43.333 -77.499 75s-35.333 69 -45 112s-14.5 89.5 -14.5 139.5s4.83301 96.5 14.5 139.5
s24.667 80.333 45 112s46.166 56.667 77.499 75s68.666 27.5 111.999 27.5s80.666 -9.16699 111.999 -27.5s57.166 -43.333 77.499 -75s35.333 -69 45 -112s14.5 -89.5 14.5 -139.5zM459 346c0 38.667 -2.5 75.334 -7.5 110.001s-13.5 65.334 -25.5 92.001
s-28 47.834 -48 63.501s-45 23.5 -75 23.5s-55 -7.83301 -75 -23.5s-36 -36.834 -48 -63.501s-20.5 -57.334 -25.5 -92.001s-7.5 -71.334 -7.5 -110.001s2.5 -75.5 7.5 -110.5s13.5 -65.833 25.5 -92.5s28 -47.834 48 -63.501s45 -23.5 75 -23.5s55 7.83301 75 23.5
s36 36.834 48 63.501s20.5 57.5 25.5 92.5s7.5 71.833 7.5 110.5zM400 743l-96.998 82l-97 -82l-30 26l93 100c4.66699 5.33301 10.167 9.16602 16.5 11.499s12.166 3.5 17.499 3.5s11.166 -1.16699 17.499 -3.5s11.833 -6.16602 16.5 -11.499l93 -100z" />
    <glyph glyph-name="Otilde" unicode="&#xd5;" horiz-adv-x="606" 
d="M552 344c0 -50 -4.83301 -96.5 -14.5 -139.5s-24.667 -80.333 -45 -112s-46.166 -56.667 -77.499 -75s-68.666 -27.5 -111.999 -27.5s-80.666 9.16699 -111.999 27.5s-57.166 43.333 -77.499 75s-35.333 69 -45 112s-14.5 89.5 -14.5 139.5s4.83301 96.5 14.5 139.5
s24.667 80.333 45 112s46.166 56.667 77.499 75s68.666 27.5 111.999 27.5s80.666 -9.16699 111.999 -27.5s57.166 -43.333 77.499 -75s35.333 -69 45 -112s14.5 -89.5 14.5 -139.5zM459 346c0 38.667 -2.5 75.334 -7.5 110.001s-13.5 65.334 -25.5 92.001
s-28 47.834 -48 63.501s-45 23.5 -75 23.5s-55 -7.83301 -75 -23.5s-36 -36.834 -48 -63.501s-20.5 -57.334 -25.5 -92.001s-7.5 -71.334 -7.5 -110.001s2.5 -75.5 7.5 -110.5s13.5 -65.833 25.5 -92.5s28 -47.834 48 -63.501s45 -23.5 75 -23.5s55 7.83301 75 23.5
s36 36.834 48 63.501s20.5 57.5 25.5 92.5s7.5 71.833 7.5 110.5zM432 834c-4 -23.333 -12.0059 -42.668 -24.0059 -58.001s-29.667 -23 -53 -23c-11.333 0 -21.166 2.16699 -29.499 6.5s-16.166 9 -23.499 14s-14.833 9.66699 -22.5 14s-16.167 6.5 -25.5 6.5
c-11.333 0 -20.166 -3.66699 -26.499 -11s-10.833 -16.666 -13.5 -27.999l-40 13c4 23.333 12 42.5 24 57.5s29.667 22.5 53 22.5c10.667 0 20.334 -2.16699 29.001 -6.5s16.834 -9 24.501 -14s15.334 -9.66699 23.001 -14s16.167 -6.5 25.5 -6.5
c11.333 0 20 3.83301 26 11.5s10.333 17.167 13 28.5z" />
    <glyph glyph-name="Odieresis" unicode="&#xd6;" horiz-adv-x="606" 
d="M552 344c0 -50 -4.83301 -96.5 -14.5 -139.5s-24.667 -80.333 -45 -112s-46.166 -56.667 -77.499 -75s-68.666 -27.5 -111.999 -27.5s-80.666 9.16699 -111.999 27.5s-57.166 43.333 -77.499 75s-35.333 69 -45 112s-14.5 89.5 -14.5 139.5s4.83301 96.5 14.5 139.5
s24.667 80.333 45 112s46.166 56.667 77.499 75s68.666 27.5 111.999 27.5s80.666 -9.16699 111.999 -27.5s57.166 -43.333 77.499 -75s35.333 -69 45 -112s14.5 -89.5 14.5 -139.5zM459 346c0 38.667 -2.5 75.334 -7.5 110.001s-13.5 65.334 -25.5 92.001
s-28 47.834 -48 63.501s-45 23.5 -75 23.5s-55 -7.83301 -75 -23.5s-36 -36.834 -48 -63.501s-20.5 -57.334 -25.5 -92.001s-7.5 -71.334 -7.5 -110.001s2.5 -75.5 7.5 -110.5s13.5 -65.833 25.5 -92.5s28 -47.834 48 -63.501s45 -23.5 75 -23.5s55 7.83301 75 23.5
s36 36.834 48 63.501s20.5 57.5 25.5 92.5s7.5 71.833 7.5 110.5zM268 803c0 -12 -4.33301 -22.333 -13 -31s-19 -13 -31 -13s-22.333 4.33301 -31 13s-13 19 -13 31s4.33301 22.333 13 31s19 13 31 13s22.333 -4.33301 31 -13s13 -19 13 -31zM428 803
c0 -12 -4.33301 -22.333 -13 -31s-19 -13 -31 -13s-22.333 4.33301 -31 13s-13 19 -13 31s4.33301 22.333 13 31s19 13 31 13s22.333 -4.33301 31 -13s13 -19 13 -31z" />
    <glyph glyph-name="multiply" unicode="&#xd7;" horiz-adv-x="518" 
d="M412 140l-153 153l-153 -153l-44 43l153 153l-153 154l44 43l153 -153l153 153l44 -43l-153 -154l153 -153z" />
    <glyph glyph-name="Oslash" unicode="&#xd8;" horiz-adv-x="606" 
d="M552 344c0 -50 -4.83301 -96.5 -14.5 -139.5s-24.667 -80.333 -45 -112s-46.166 -56.667 -77.499 -75s-68.666 -27.5 -111.999 -27.5c-33.333 0 -63 5.5 -89 16.5s-48.667 26.167 -68 45.5l-56 -92l-31 20l62 102c-22.667 32 -39.5 70.5 -50.5 115.5
s-16.5 93.833 -16.5 146.5c0 50 4.83301 96.5 14.5 139.5s24.667 80.333 45 112s46.166 56.667 77.499 75s68.666 27.5 111.999 27.5c34 0 63.833 -5.33301 89.5 -16s48.167 -26 67.5 -46l57 92l31 -20l-63 -102c22.667 -32 39.5 -70.5 50.5 -115.5
s16.5 -93.833 16.5 -146.5zM420 570c-12.667 22 -28.502 39.1689 -47.502 51.502s-42.167 18.5 -69.5 18.5c-30.667 0 -56.167 -7.83301 -76.5 -23.5s-36.666 -36.834 -48.999 -63.501s-21.166 -57.834 -26.499 -93.501s-8 -73.167 -8 -112.5c0 -35.333 2 -69 6 -101
s10.667 -60.667 20 -86zM462.998 347.002c0 34 -1.83301 66.5 -5.5 97.5s-10.167 59.167 -19.5 84.5l-250 -409c12.667 -21.333 28.334 -37.833 47.001 -49.5s41.334 -17.5 68.001 -17.5c30.667 0 56.167 7.83301 76.5 23.5s36.666 37 48.999 64s21.166 58.333 26.499 94
s8 73.167 8 112.5z" />
    <glyph glyph-name="Ugrave" unicode="&#xd9;" horiz-adv-x="585" 
d="M508 196c0 -29.333 -4.99805 -56.666 -14.998 -81.999s-24.333 -47.166 -43 -65.499s-41.334 -32.833 -68.001 -43.5s-56.667 -16 -90 -16s-63.333 5.33301 -90 16s-49.167 25.167 -67.5 43.5s-32.5 40.166 -42.5 65.499s-15 52.666 -15 81.999v492h92v-492
c0 -21.333 3.5 -40.333 10.5 -57s16.167 -30.834 27.5 -42.501s24.666 -20.5 39.999 -26.5s31.666 -9 48.999 -9c16.667 0 32.834 3 48.501 9s29.167 14.833 40.5 26.5s20.5 25.834 27.5 42.501s10.5 35.667 10.5 57v492h85v-492zM296.002 747l-113 131.001
c4 7.33301 9.83301 12.666 17.5 15.999s16.167 5 25.5 5c18.667 0 34.667 -5 48 -15l73 -137h-51z" />
    <glyph glyph-name="Uacute" unicode="&#xda;" horiz-adv-x="585" 
d="M508 196c0 -29.333 -4.99805 -56.666 -14.998 -81.999s-24.333 -47.166 -43 -65.499s-41.334 -32.833 -68.001 -43.5s-56.667 -16 -90 -16s-63.333 5.33301 -90 16s-49.167 25.167 -67.5 43.5s-32.5 40.166 -42.5 65.499s-15 52.666 -15 81.999v492h92v-492
c0 -21.333 3.5 -40.333 10.5 -57s16.167 -30.834 27.5 -42.501s24.666 -20.5 39.999 -26.5s31.666 -9 48.999 -9c16.667 0 32.834 3 48.501 9s29.167 14.833 40.5 26.5s20.5 25.834 27.5 42.501s10.5 35.667 10.5 57v492h85v-492zM298.002 747h-51l73 137
c6.66699 5.33301 14.167 9.16602 22.5 11.499s16.833 3.5 25.5 3.5c9.33301 0 17.833 -1.66699 25.5 -5s13.5 -8.66602 17.5 -15.999z" />
    <glyph glyph-name="Ucircumflex" unicode="&#xdb;" horiz-adv-x="585" 
d="M508 196c0 -29.333 -4.99805 -56.666 -14.998 -81.999s-24.333 -47.166 -43 -65.499s-41.334 -32.833 -68.001 -43.5s-56.667 -16 -90 -16s-63.333 5.33301 -90 16s-49.167 25.167 -67.5 43.5s-32.5 40.166 -42.5 65.499s-15 52.666 -15 81.999v492h92v-492
c0 -21.333 3.5 -40.333 10.5 -57s16.167 -30.834 27.5 -42.501s24.666 -20.5 39.999 -26.5s31.666 -9 48.999 -9c16.667 0 32.834 3 48.501 9s29.167 14.833 40.5 26.5s20.5 25.834 27.5 42.501s10.5 35.667 10.5 57v492h85v-492zM393.002 743l-96.998 82l-97 -82l-30 26
l93 100c4.66699 5.33301 10.167 9.16602 16.5 11.499s12.166 3.5 17.499 3.5s11.166 -1.16699 17.499 -3.5s11.833 -6.16602 16.5 -11.499l93 -100z" />
    <glyph glyph-name="Udieresis" unicode="&#xdc;" horiz-adv-x="585" 
d="M508 196c0 -29.333 -4.99805 -56.666 -14.998 -81.999s-24.333 -47.166 -43 -65.499s-41.334 -32.833 -68.001 -43.5s-56.667 -16 -90 -16s-63.333 5.33301 -90 16s-49.167 25.167 -67.5 43.5s-32.5 40.166 -42.5 65.499s-15 52.666 -15 81.999v492h92v-492
c0 -21.333 3.5 -40.333 10.5 -57s16.167 -30.834 27.5 -42.501s24.666 -20.5 39.999 -26.5s31.666 -9 48.999 -9c16.667 0 32.834 3 48.501 9s29.167 14.833 40.5 26.5s20.5 25.834 27.5 42.501s10.5 35.667 10.5 57v492h85v-492zM261.002 803
c0 -12 -4.33301 -22.333 -13 -31s-19 -13 -31 -13s-22.333 4.33301 -31 13s-13 19 -13 31s4.33301 22.333 13 31s19 13 31 13s22.333 -4.33301 31 -13s13 -19 13 -31zM420.002 803c0 -12 -4.33301 -22.333 -13 -31s-19 -13 -31 -13s-22.333 4.33301 -31 13s-13 19 -13 31
s4.33301 22.333 13 31s19 13 31 13s22.333 -4.33301 31 -13s13 -19 13 -31z" />
    <glyph glyph-name="Yacute" unicode="&#xdd;" horiz-adv-x="501" 
d="M297 305v-305h-92v305l-188 383h99l138 -311h2l142 311h88zM268 747h-51l73 137c6.66699 5.33301 14.167 9.16602 22.5 11.499s16.833 3.5 25.5 3.5c9.33301 0 17.833 -1.66699 25.5 -5s13.5 -8.66602 17.5 -15.999z" />
    <glyph glyph-name="Thorn" unicode="&#xde;" horiz-adv-x="533" 
d="M484 372c0 -28.667 -4.83398 -55.666 -14.501 -80.999s-24.667 -47.5 -45 -66.5s-46.166 -34 -77.499 -45s-69 -16.5 -113 -16.5c-12 0 -23.667 0.333008 -35 1s-22 1.66699 -32 3v-167h-90v688h90v-120c12 3.33301 25 6.16602 39 8.49902s28.333 3.5 43 3.5
c79.333 0 138.333 -18.667 177 -56s58 -88 58 -152zM394.999 374.001c0 46.667 -11.167 83.5 -33.5 110.5s-59.833 40.5 -112.5 40.5c-32 0 -59.333 -4.33301 -82 -13v-289c9.33301 -1.33301 19.833 -2.33301 31.5 -3s23.5 -1 35.5 -1c30 0 55.333 4 76 12
s37.167 19 49.5 33s21.333 30.333 27 49s8.5 39 8.5 61z" />
    <glyph glyph-name="germandbls" unicode="&#xdf;" horiz-adv-x="566" 
d="M520 147c0 -23.333 -4.33398 -44.668 -13.001 -64.001s-20.834 -35.666 -36.501 -48.999s-34.334 -23.666 -56.001 -30.999s-45.5 -11 -71.5 -11c-17.333 0 -36.5 2.83301 -57.5 8.5s-38.5 12.5 -52.5 20.5l18 57c10.667 -6 23.834 -11.333 39.501 -16s30.167 -7 43.5 -7
c31.333 0 55.5 8.16699 72.5 24.5s25.5 38.833 25.5 67.5c0 17.333 -4.16699 32.666 -12.5 45.999s-18.833 25.5 -31.5 36.5s-26.167 22 -40.5 33s-27.833 23 -40.5 36s-23.167 27.5 -31.5 43.5s-12.5 35.333 -12.5 58c0 36.667 11.667 66.334 35 89.001
s53.666 37.667 90.999 45c0.666992 6 1.33398 13.167 2.00098 21.5s1 20.166 1 35.499c0 18.667 -2 36.667 -6 54s-10.5 32.833 -19.5 46.5s-20.333 24.5 -34 32.5s-30.5 12 -50.5 12c-22.667 0 -41.834 -5.5 -57.501 -16.5s-28.167 -25.833 -37.5 -44.5
s-16.166 -40 -20.499 -64s-6.5 -49 -6.5 -75v-536h-87v531c0 36.667 4 71 12 103s20.5 60 37.5 84s38.667 42.833 65 56.5s57.5 20.5 93.5 20.5c32.667 0 61.167 -5.5 85.5 -16.5s44.833 -25.667 61.5 -44s29.167 -39.833 37.5 -64.5s12.5 -50.667 12.5 -78
c0 -13.333 -1.16699 -28.833 -3.5 -46.5s-5.5 -32.167 -9.5 -43.5c-38 -2.66699 -67.333 -12 -88 -28s-31 -39.333 -31 -70c0 -16 4.33301 -30 13 -42s19.334 -23.667 32.001 -35s26.667 -22.5 42 -33.5s29.333 -23.5 42 -37.5s23.334 -29.667 32.001 -47s13 -38 13 -62z
" />
    <glyph glyph-name="agrave" unicode="&#xe0;" horiz-adv-x="499" 
d="M428 28c-21.333 -11.333 -47.502 -20.499 -78.502 -27.499s-64.5 -10.5 -100.5 -10.5c-64.667 0 -115 13.667 -151 41s-54 68 -54 122c0 32.667 7.5 60.5 22.5 83.5s36 42.167 63 57.5s59 27.5 96 36.5s77.167 15.5 120.5 19.5v33c0 37.333 -9.66699 64.5 -29 81.5
s-48 25.5 -86 25.5c-23.333 0 -47 -3.16699 -71 -9.5s-45.333 -14.5 -64 -24.5l-21 54c22.667 11.333 48.334 20.666 77.001 27.999s57.667 11 87 11c58.667 0 104.834 -14 138.501 -42s50.5 -72.333 50.5 -133v-346zM345.998 304.001
c-68.667 -8 -122.168 -22.998 -160.501 -44.998s-57.5 -56.667 -57.5 -104c0 -36.667 11 -64.834 33 -84.501s54 -29.5 96 -29.5c17.333 0 33.833 1.66699 49.5 5s28.834 7.66602 39.501 12.999v245zM250.997 599.003l-113 131.001c4 7.33301 9.83301 12.666 17.5 15.999
s16.167 5 25.5 5c18.667 0 34.667 -5 48 -15l73 -137h-51z" />
    <glyph glyph-name="aacute" unicode="&#xe1;" horiz-adv-x="499" 
d="M428 28c-21.333 -11.333 -47.502 -20.499 -78.502 -27.499s-64.5 -10.5 -100.5 -10.5c-64.667 0 -115 13.667 -151 41s-54 68 -54 122c0 32.667 7.5 60.5 22.5 83.5s36 42.167 63 57.5s59 27.5 96 36.5s77.167 15.5 120.5 19.5v33c0 37.333 -9.66699 64.5 -29 81.5
s-48 25.5 -86 25.5c-23.333 0 -47 -3.16699 -71 -9.5s-45.333 -14.5 -64 -24.5l-21 54c22.667 11.333 48.334 20.666 77.001 27.999s57.667 11 87 11c58.667 0 104.834 -14 138.501 -42s50.5 -72.333 50.5 -133v-346zM345.998 304.001
c-68.667 -8 -122.168 -22.998 -160.501 -44.998s-57.5 -56.667 -57.5 -104c0 -36.667 11 -64.834 33 -84.501s54 -29.5 96 -29.5c17.333 0 33.833 1.66699 49.5 5s28.834 7.66602 39.501 12.999v245zM268.997 599.003h-51l73 137
c6.66699 5.33301 14.167 9.16602 22.5 11.499s16.833 3.5 25.5 3.5c9.33301 0 17.833 -1.66699 25.5 -5s13.5 -8.66602 17.5 -15.999z" />
    <glyph glyph-name="acircumflex" unicode="&#xe2;" horiz-adv-x="499" 
d="M428 28c-21.333 -11.333 -47.502 -20.499 -78.502 -27.499s-64.5 -10.5 -100.5 -10.5c-64.667 0 -115 13.667 -151 41s-54 68 -54 122c0 32.667 7.5 60.5 22.5 83.5s36 42.167 63 57.5s59 27.5 96 36.5s77.167 15.5 120.5 19.5v33c0 37.333 -9.66699 64.5 -29 81.5
s-48 25.5 -86 25.5c-23.333 0 -47 -3.16699 -71 -9.5s-45.333 -14.5 -64 -24.5l-21 54c22.667 11.333 48.334 20.666 77.001 27.999s57.667 11 87 11c58.667 0 104.834 -14 138.501 -42s50.5 -72.333 50.5 -133v-346zM345.998 304.001
c-68.667 -8 -122.168 -22.998 -160.501 -44.998s-57.5 -56.667 -57.5 -104c0 -36.667 11 -64.834 33 -84.501s54 -29.5 96 -29.5c17.333 0 33.833 1.66699 49.5 5s28.834 7.66602 39.501 12.999v245zM348.997 594.003l-96.998 82l-97 -82l-30 26l93 100
c4.66699 5.33301 10.167 9.16602 16.5 11.499s12.166 3.5 17.499 3.5s11.166 -1.16699 17.499 -3.5s11.833 -6.16602 16.5 -11.499l93 -100z" />
    <glyph glyph-name="atilde" unicode="&#xe3;" horiz-adv-x="499" 
d="M428 28c-21.333 -11.333 -47.502 -20.499 -78.502 -27.499s-64.5 -10.5 -100.5 -10.5c-64.667 0 -115 13.667 -151 41s-54 68 -54 122c0 32.667 7.5 60.5 22.5 83.5s36 42.167 63 57.5s59 27.5 96 36.5s77.167 15.5 120.5 19.5v33c0 37.333 -9.66699 64.5 -29 81.5
s-48 25.5 -86 25.5c-23.333 0 -47 -3.16699 -71 -9.5s-45.333 -14.5 -64 -24.5l-21 54c22.667 11.333 48.334 20.666 77.001 27.999s57.667 11 87 11c58.667 0 104.834 -14 138.501 -42s50.5 -72.333 50.5 -133v-346zM345.998 304.001
c-68.667 -8 -122.168 -22.998 -160.501 -44.998s-57.5 -56.667 -57.5 -104c0 -36.667 11 -64.834 33 -84.501s54 -29.5 96 -29.5c17.333 0 33.833 1.66699 49.5 5s28.834 7.66602 39.501 12.999v245zM377.997 685.003c-4 -23.333 -12.0059 -42.668 -24.0059 -58.001
s-29.667 -23 -53 -23c-11.333 0 -21.166 2.16699 -29.499 6.5s-16.166 9 -23.499 14s-14.833 9.66699 -22.5 14s-16.167 6.5 -25.5 6.5c-11.333 0 -20.166 -3.66699 -26.499 -11s-10.833 -16.666 -13.5 -27.999l-40 13c4 23.333 12 42.5 24 57.5s29.667 22.5 53 22.5
c10.667 0 20.334 -2.16699 29.001 -6.5s16.834 -9 24.501 -14s15.334 -9.66699 23.001 -14s16.167 -6.5 25.5 -6.5c11.333 0 20 3.83301 26 11.5s10.333 17.167 13 28.5z" />
    <glyph glyph-name="adieresis" unicode="&#xe4;" horiz-adv-x="499" 
d="M428 28c-21.333 -11.333 -47.502 -20.499 -78.502 -27.499s-64.5 -10.5 -100.5 -10.5c-64.667 0 -115 13.667 -151 41s-54 68 -54 122c0 32.667 7.5 60.5 22.5 83.5s36 42.167 63 57.5s59 27.5 96 36.5s77.167 15.5 120.5 19.5v33c0 37.333 -9.66699 64.5 -29 81.5
s-48 25.5 -86 25.5c-23.333 0 -47 -3.16699 -71 -9.5s-45.333 -14.5 -64 -24.5l-21 54c22.667 11.333 48.334 20.666 77.001 27.999s57.667 11 87 11c58.667 0 104.834 -14 138.501 -42s50.5 -72.333 50.5 -133v-346zM345.998 304.001
c-68.667 -8 -122.168 -22.998 -160.501 -44.998s-57.5 -56.667 -57.5 -104c0 -36.667 11 -64.834 33 -84.501s54 -29.5 96 -29.5c17.333 0 33.833 1.66699 49.5 5s28.834 7.66602 39.501 12.999v245zM219.997 654.003c0 -12 -4.33301 -22.333 -13 -31s-19 -13 -31 -13
s-22.333 4.33301 -31 13s-13 19 -13 31s4.33301 22.333 13 31s19 13 31 13s22.333 -4.33301 31 -13s13 -19 13 -31zM378.997 654.003c0 -12 -4.33301 -22.333 -13 -31s-19 -13 -31 -13s-22.333 4.33301 -31 13s-13 19 -13 31s4.33301 22.333 13 31s19 13 31 13
s22.333 -4.33301 31 -13s13 -19 13 -31z" />
    <glyph glyph-name="aring" unicode="&#xe5;" horiz-adv-x="499" 
d="M428 28c-21.333 -11.333 -47.502 -20.499 -78.502 -27.499s-64.5 -10.5 -100.5 -10.5c-64.667 0 -115 13.667 -151 41s-54 68 -54 122c0 32.667 7.5 60.5 22.5 83.5s36 42.167 63 57.5s59 27.5 96 36.5s77.167 15.5 120.5 19.5v33c0 37.333 -9.66699 64.5 -29 81.5
s-48 25.5 -86 25.5c-23.333 0 -47 -3.16699 -71 -9.5s-45.333 -14.5 -64 -24.5l-21 54c22.667 11.333 48.334 20.666 77.001 27.999s57.667 11 87 11c58.667 0 104.834 -14 138.501 -42s50.5 -72.333 50.5 -133v-346zM345.998 304.001
c-68.667 -8 -122.168 -22.998 -160.501 -44.998s-57.5 -56.667 -57.5 -104c0 -36.667 11 -64.834 33 -84.501s54 -29.5 96 -29.5c17.333 0 33.833 1.66699 49.5 5s28.834 7.66602 39.501 12.999v245zM334.997 679.003c0 -22.667 -7.83301 -41.834 -23.5 -57.501
s-34.834 -23.5 -57.501 -23.5s-41.834 7.83301 -57.501 23.5s-23.5 34.834 -23.5 57.501s7.83301 41.834 23.5 57.501s34.834 23.5 57.501 23.5s41.834 -7.83301 57.501 -23.5s23.5 -34.834 23.5 -57.501zM298.997 679.003c0 12.667 -4.33301 23.5 -13 32.5
s-19.334 13.5 -32.001 13.5s-23.334 -4.5 -32.001 -13.5s-13 -19.833 -13 -32.5s4.33301 -23.5 13 -32.5s19.334 -13.5 32.001 -13.5s23.334 4.5 32.001 13.5s13 19.833 13 32.5z" />
    <glyph glyph-name="ae" unicode="&#xe6;" horiz-adv-x="805" 
d="M417 235c4 -55.333 19.5 -99.5 46.5 -132.5s66.833 -49.5 119.5 -49.5c25.333 0 49.666 3.16699 72.999 9.5s42.333 13.833 57 22.5l23 -57c-18 -10.667 -41.167 -19.667 -69.5 -27s-58.5 -11 -90.5 -11c-40 0 -75.667 8.5 -107 25.5s-56.333 41.5 -75 73.5
c-30.667 -66 -84.667 -99 -162 -99c-57.333 0 -103 14.167 -137 42.5s-51 68.5 -51 120.5c0 32 7.5 59.5 22.5 82.5s35.833 42.333 62.5 58s58.334 28 95.001 37s76.667 15.5 120 19.5v33c0 20 -2.83301 36.833 -8.5 50.5s-13.834 24.667 -24.501 33
s-23.167 14.333 -37.5 18s-29.833 5.5 -46.5 5.5c-26 0 -50.5 -3.66699 -73.5 -11s-42.167 -15 -57.5 -23l-21 54c15.333 8 37.333 16.5 66 25.5s61 13.5 97 13.5c34 0 65.167 -7.16699 93.5 -21.5s48.5 -38.833 60.5 -73.5c17.333 34 40.833 58.333 70.5 73
s59.167 22 88.5 22c64.667 0 114.834 -21 150.501 -63s53.5 -106.667 53.5 -194v-7zM671 323c-1.33301 54.667 -11.668 96.833 -31.001 126.5s-50 44.5 -92 44.5c-19.333 0 -37.166 -4 -53.499 -12s-30.5 -20.5 -42.5 -37.5s-21.5 -38.5 -28.5 -64.5
s-10.5 -56.667 -10.5 -92v-5zM343.998 303.999c-34 -4 -64.333 -9.33301 -91 -16s-49.334 -15.834 -68.001 -27.501s-33 -26.167 -43 -43.5s-15 -38 -15 -62c0 -33.333 9.16699 -60.666 27.5 -81.999s45.833 -32 82.5 -32c14.667 0 28.5 2.83301 41.5 8.5
s24.333 13.667 34 24s17.334 22.5 23.001 36.5s8.5 29 8.5 45v149z" />
    <glyph glyph-name="ccedilla" unicode="&#xe7;" horiz-adv-x="415" 
d="M380 25c-14.667 -11.333 -32.167 -19.9971 -52.5 -25.9971s-43.166 -9 -68.499 -9c-32.667 0 -61.834 6.83301 -87.501 20.5s-47.5 32.834 -65.5 57.501s-31.833 54.167 -41.5 88.5s-14.5 72.166 -14.5 113.499s4.83301 79.166 14.5 113.499s23.5 63.666 41.5 87.999
s40 43.333 66 57s55 20.5 87 20.5c25.333 0 48.166 -3 68.499 -9s37.833 -14.667 52.5 -26l-21 -52c-10.667 8 -23.5 14.5 -38.5 19.5s-30.5 7.5 -46.5 7.5c-21.333 0 -40.333 -5.5 -57 -16.5s-30.667 -26.167 -42 -45.5s-20 -42.333 -26 -69s-9 -55.334 -9 -86.001
s3 -59.167 9 -85.5s14.667 -49.333 26 -69s25.333 -35.167 42 -46.5s35.667 -17 57 -17c16 0 31.333 2.33301 46 7s27.334 11 38.001 19zM328 -123.997c0 -25.333 -14.832 -44.6689 -44.499 -58.002s-70.834 -20 -123.501 -20c-18 0 -33.667 0.666992 -47 2
s-22.333 2.33301 -27 3l18 36c9.33301 -1.33301 17.333 -2.16602 24 -2.49902s14.667 -0.5 24 -0.5c30 0 55.333 3.33301 76 10s31 16.667 31 30c0 21.333 -23.667 32 -71 32c-12 0 -21.833 -0.166992 -29.5 -0.5s-15.5 -0.833008 -23.5 -1.5l16 34
c6 0.666992 14 1.33398 24 2.00098s22.667 1 38 1c42 0 71.667 -6.33301 89 -19s26 -28.667 26 -48z" />
    <glyph glyph-name="egrave" unicode="&#xe8;" horiz-adv-x="524" 
d="M135 235c4 -56 19.832 -100.332 47.499 -132.999s67.167 -49 118.5 -49c24.667 0 48.834 3 72.501 9s43.167 13.667 58.5 23l23 -57c-19.333 -11.333 -43.333 -20.5 -72 -27.5s-59 -10.5 -91 -10.5c-77.333 0 -137 24.833 -179 74.5s-63 118.5 -63 206.5
c0 42 5 80.167 15 114.5s24.333 63.666 43 87.999s41.5 43 68.5 56s57.5 19.5 91.5 19.5c64.667 0 115.167 -21 151.5 -63s54.5 -105.667 54.5 -191v-10zM388.999 323.001c-1.33301 54.667 -11.667 96.833 -31 126.5s-50 44.5 -92 44.5c-22 0 -41.5 -5 -58.5 -15
s-31.167 -24 -42.5 -42s-19.833 -39.667 -25.5 -65s-8.5 -53.333 -8.5 -84v-5zM258.998 599l-113 131.001c4 7.33301 9.83301 12.666 17.5 15.999s16.167 5 25.5 5c18.667 0 34.667 -5 48 -15l73 -137h-51z" />
    <glyph glyph-name="eacute" unicode="&#xe9;" horiz-adv-x="524" 
d="M135 235c4 -56 19.832 -100.332 47.499 -132.999s67.167 -49 118.5 -49c24.667 0 48.834 3 72.501 9s43.167 13.667 58.5 23l23 -57c-19.333 -11.333 -43.333 -20.5 -72 -27.5s-59 -10.5 -91 -10.5c-77.333 0 -137 24.833 -179 74.5s-63 118.5 -63 206.5
c0 42 5 80.167 15 114.5s24.333 63.666 43 87.999s41.5 43 68.5 56s57.5 19.5 91.5 19.5c64.667 0 115.167 -21 151.5 -63s54.5 -105.667 54.5 -191v-10zM388.999 323.001c-1.33301 54.667 -11.667 96.833 -31 126.5s-50 44.5 -92 44.5c-22 0 -41.5 -5 -58.5 -15
s-31.167 -24 -42.5 -42s-19.833 -39.667 -25.5 -65s-8.5 -53.333 -8.5 -84v-5zM277.998 599h-51l73 137c6.66699 5.33301 14.167 9.16602 22.5 11.499s16.833 3.5 25.5 3.5c9.33301 0 17.833 -1.66699 25.5 -5s13.5 -8.66602 17.5 -15.999z" />
    <glyph glyph-name="ecircumflex" unicode="&#xea;" horiz-adv-x="524" 
d="M135 235c4 -56 19.832 -100.332 47.499 -132.999s67.167 -49 118.5 -49c24.667 0 48.834 3 72.501 9s43.167 13.667 58.5 23l23 -57c-19.333 -11.333 -43.333 -20.5 -72 -27.5s-59 -10.5 -91 -10.5c-77.333 0 -137 24.833 -179 74.5s-63 118.5 -63 206.5
c0 42 5 80.167 15 114.5s24.333 63.666 43 87.999s41.5 43 68.5 56s57.5 19.5 91.5 19.5c64.667 0 115.167 -21 151.5 -63s54.5 -105.667 54.5 -191v-10zM388.999 323.001c-1.33301 54.667 -11.667 96.833 -31 126.5s-50 44.5 -92 44.5c-22 0 -41.5 -5 -58.5 -15
s-31.167 -24 -42.5 -42s-19.833 -39.667 -25.5 -65s-8.5 -53.333 -8.5 -84v-5zM365.998 594l-96.998 82l-97 -82l-30 26l93 100c4.66699 5.33301 10.167 9.16602 16.5 11.499s12.166 3.5 17.499 3.5s11.166 -1.16699 17.499 -3.5s11.833 -6.16602 16.5 -11.499l93 -100z" />
    <glyph glyph-name="edieresis" unicode="&#xeb;" horiz-adv-x="524" 
d="M135 235c4 -56 19.832 -100.332 47.499 -132.999s67.167 -49 118.5 -49c24.667 0 48.834 3 72.501 9s43.167 13.667 58.5 23l23 -57c-19.333 -11.333 -43.333 -20.5 -72 -27.5s-59 -10.5 -91 -10.5c-77.333 0 -137 24.833 -179 74.5s-63 118.5 -63 206.5
c0 42 5 80.167 15 114.5s24.333 63.666 43 87.999s41.5 43 68.5 56s57.5 19.5 91.5 19.5c64.667 0 115.167 -21 151.5 -63s54.5 -105.667 54.5 -191v-10zM388.999 323.001c-1.33301 54.667 -11.667 96.833 -31 126.5s-50 44.5 -92 44.5c-22 0 -41.5 -5 -58.5 -15
s-31.167 -24 -42.5 -42s-19.833 -39.667 -25.5 -65s-8.5 -53.333 -8.5 -84v-5zM232.998 654c0 -12 -4.33301 -22.333 -13 -31s-19 -13 -31 -13s-22.333 4.33301 -31 13s-13 19 -13 31s4.33301 22.333 13 31s19 13 31 13s22.333 -4.33301 31 -13s13 -19 13 -31zM392.998 654
c0 -12 -4.33301 -22.333 -13 -31s-19 -13 -31 -13s-22.333 4.33301 -31 13s-13 19 -13 31s4.33301 22.333 13 31s19 13 31 13s22.333 -4.33301 31 -13s13 -19 13 -31z" />
    <glyph glyph-name="igrave" unicode="&#xec;" horiz-adv-x="242" 
d="M77 0v539h88v-539h-88zM120 599l-113 131.001c4 7.33301 9.83301 12.666 17.5 15.999s16.167 5 25.5 5c18.667 0 34.667 -5 48 -15l73 -137h-51z" />
    <glyph glyph-name="iacute" unicode="&#xed;" horiz-adv-x="242" 
d="M77 0v539h88v-539h-88zM124 599h-51l73 137c6.66699 5.33301 14.167 9.16602 22.5 11.499s16.833 3.5 25.5 3.5c9.33301 0 17.833 -1.66699 25.5 -5s13.5 -8.66602 17.5 -15.999z" />
    <glyph glyph-name="icircumflex" unicode="&#xee;" horiz-adv-x="242" 
d="M77 0v539h88v-539h-88zM219 594l-96.998 82l-97 -82l-30 26l93 100c4.66699 5.33301 10.167 9.16602 16.5 11.499s12.166 3.5 17.499 3.5s11.166 -1.16699 17.499 -3.5s11.833 -6.16602 16.5 -11.499l93 -100z" />
    <glyph glyph-name="idieresis" unicode="&#xef;" horiz-adv-x="242" 
d="M77 0v539h88v-539h-88zM86 654c0 -12 -4.33301 -22.333 -13 -31s-19 -13 -31 -13s-22.333 4.33301 -31 13s-13 19 -13 31s4.33301 22.333 13 31s19 13 31 13s22.333 -4.33301 31 -13s13 -19 13 -31zM245 654c0 -12 -4.33301 -22.333 -13 -31s-19 -13 -31 -13
s-22.333 4.33301 -31 13s-13 19 -13 31s4.33301 22.333 13 31s19 13 31 13s22.333 -4.33301 31 -13s13 -19 13 -31z" />
    <glyph glyph-name="eth" unicode="&#xf0;" horiz-adv-x="526" 
d="M476 269c0 -40 -4 -76.999 -12 -110.999s-20.667 -63.5 -38 -88.5s-39.5 -44.5 -66.5 -58.5s-59.5 -21 -97.5 -21c-68.667 0 -121.167 24.333 -157.5 73s-54.5 115 -54.5 199c0 38.667 5 74.667 15 108s24.5 62.333 43.5 87s42.167 44.167 69.5 58.5s58.333 21.5 93 21.5
c23.333 0 43 -2.66699 59 -8c-10 20.667 -21.667 40.667 -35 60s-28 38 -44 56l-102 -62l-26 38l93 60l-74 74l56 43l80 -81l93 58l29 -42l-84 -53c52 -58.667 91.667 -122.334 119 -191.001s41 -142 41 -220zM388 269.001c0 74 -12 143.003 -36 207.003
c-7.33301 3.33301 -16.5 6.16602 -27.5 8.49902s-23.5 3.5 -37.5 3.5c-26 0 -48.333 -6 -67 -18s-34 -28.167 -46 -48.5s-21 -44.333 -27 -72s-9 -56.834 -9 -87.501s2.33301 -59 7 -85s12.167 -48.5 22.5 -67.5s23.333 -33.833 39 -44.5s34.5 -16 56.5 -16
c24.667 0 45 6.33301 61 19s28.667 29.167 38 49.5s16 43.666 20 69.999s6 53.5 6 81.5z" />
    <glyph glyph-name="ntilde" unicode="&#xf1;" horiz-adv-x="534" 
d="M375 0l0.000976562 371.999c0 40.667 -9.16699 71 -27.5 91s-49.5 30 -93.5 30c-35.333 0 -67 -6 -95 -18v-475h-88v511c25.333 11.333 53.666 20.5 84.999 27.5s64 10.5 98 10.5c72.667 0 125.667 -15.167 159 -45.5s50 -74.166 50 -131.499v-372h-88zM391.001 684.999
c-4 -23.333 -12.0059 -42.668 -24.0059 -58.001s-29.667 -23 -53 -23c-11.333 0 -21.166 2.16699 -29.499 6.5s-16.166 9 -23.499 14s-14.833 9.66699 -22.5 14s-16.167 6.5 -25.5 6.5c-11.333 0 -20.166 -3.66699 -26.499 -11s-10.833 -16.666 -13.5 -27.999l-40 13
c4 23.333 12 42.5 24 57.5s29.667 22.5 53 22.5c10.667 0 20.334 -2.16699 29.001 -6.5s16.834 -9 24.501 -14s15.334 -9.66699 23.001 -14s16.167 -6.5 25.5 -6.5c11.333 0 20 3.83301 26 11.5s10.333 17.167 13 28.5z" />
    <glyph glyph-name="ograve" unicode="&#xf2;" horiz-adv-x="526" 
d="M476 270c0 -40.667 -4.33301 -78 -13 -112s-21.667 -63.5 -39 -88.5s-39.333 -44.5 -66 -58.5s-58.334 -21 -95.001 -21s-68.334 7 -95.001 21s-48.834 33.5 -66.501 58.5s-30.667 54.5 -39 88.5s-12.5 71.333 -12.5 112c0 40 4.16699 77.167 12.5 111.5
s21.333 63.833 39 88.5s39.834 44 66.501 58s58.334 21 95.001 21s68.334 -7 95.001 -21s48.667 -33.333 66 -58s30.333 -54.167 39 -88.5s13 -71.5 13 -111.5zM388 272c0 30 -2.16699 58.333 -6.5 85s-11.333 50.167 -21 70.5s-22.5 36.333 -38.5 48s-35.667 17.5 -59 17.5
s-43 -5.83301 -59 -17.5s-28.833 -27.667 -38.5 -48s-16.667 -43.833 -21 -70.5s-6.5 -55 -6.5 -85s2.16699 -58.5 6.5 -85.5s11.333 -50.667 21 -71s22.5 -36.5 38.5 -48.5s35.667 -18 59 -18s43 6 59 18s28.833 28.167 38.5 48.5s16.667 44 21 71s6.5 55.5 6.5 85.5z
M252 599l-113 131.001c4 7.33301 9.83301 12.666 17.5 15.999s16.167 5 25.5 5c18.667 0 34.667 -5 48 -15l73 -137h-51z" />
    <glyph glyph-name="oacute" unicode="&#xf3;" horiz-adv-x="526" 
d="M476 270c0 -40.667 -4.33301 -78 -13 -112s-21.667 -63.5 -39 -88.5s-39.333 -44.5 -66 -58.5s-58.334 -21 -95.001 -21s-68.334 7 -95.001 21s-48.834 33.5 -66.501 58.5s-30.667 54.5 -39 88.5s-12.5 71.333 -12.5 112c0 40 4.16699 77.167 12.5 111.5
s21.333 63.833 39 88.5s39.834 44 66.501 58s58.334 21 95.001 21s68.334 -7 95.001 -21s48.667 -33.333 66 -58s30.333 -54.167 39 -88.5s13 -71.5 13 -111.5zM388 272c0 30 -2.16699 58.333 -6.5 85s-11.333 50.167 -21 70.5s-22.5 36.333 -38.5 48s-35.667 17.5 -59 17.5
s-43 -5.83301 -59 -17.5s-28.833 -27.667 -38.5 -48s-16.667 -43.833 -21 -70.5s-6.5 -55 -6.5 -85s2.16699 -58.5 6.5 -85.5s11.333 -50.667 21 -71s22.5 -36.5 38.5 -48.5s35.667 -18 59 -18s43 6 59 18s28.833 28.167 38.5 48.5s16.667 44 21 71s6.5 55.5 6.5 85.5z
M274 599h-51l73 137c6.66699 5.33301 14.167 9.16602 22.5 11.499s16.833 3.5 25.5 3.5c9.33301 0 17.833 -1.66699 25.5 -5s13.5 -8.66602 17.5 -15.999z" />
    <glyph glyph-name="ocircumflex" unicode="&#xf4;" horiz-adv-x="526" 
d="M476 270c0 -40.667 -4.33301 -78 -13 -112s-21.667 -63.5 -39 -88.5s-39.333 -44.5 -66 -58.5s-58.334 -21 -95.001 -21s-68.334 7 -95.001 21s-48.834 33.5 -66.501 58.5s-30.667 54.5 -39 88.5s-12.5 71.333 -12.5 112c0 40 4.16699 77.167 12.5 111.5
s21.333 63.833 39 88.5s39.834 44 66.501 58s58.334 21 95.001 21s68.334 -7 95.001 -21s48.667 -33.333 66 -58s30.333 -54.167 39 -88.5s13 -71.5 13 -111.5zM388 272c0 30 -2.16699 58.333 -6.5 85s-11.333 50.167 -21 70.5s-22.5 36.333 -38.5 48s-35.667 17.5 -59 17.5
s-43 -5.83301 -59 -17.5s-28.833 -27.667 -38.5 -48s-16.667 -43.833 -21 -70.5s-6.5 -55 -6.5 -85s2.16699 -58.5 6.5 -85.5s11.333 -50.667 21 -71s22.5 -36.5 38.5 -48.5s35.667 -18 59 -18s43 6 59 18s28.833 28.167 38.5 48.5s16.667 44 21 71s6.5 55.5 6.5 85.5z
M360 594l-96.998 82l-97 -82l-30 26l93 100c4.66699 5.33301 10.167 9.16602 16.5 11.499s12.166 3.5 17.499 3.5s11.166 -1.16699 17.499 -3.5s11.833 -6.16602 16.5 -11.499l93 -100z" />
    <glyph glyph-name="otilde" unicode="&#xf5;" horiz-adv-x="526" 
d="M476 270c0 -40.667 -4.33301 -78 -13 -112s-21.667 -63.5 -39 -88.5s-39.333 -44.5 -66 -58.5s-58.334 -21 -95.001 -21s-68.334 7 -95.001 21s-48.834 33.5 -66.501 58.5s-30.667 54.5 -39 88.5s-12.5 71.333 -12.5 112c0 40 4.16699 77.167 12.5 111.5
s21.333 63.833 39 88.5s39.834 44 66.501 58s58.334 21 95.001 21s68.334 -7 95.001 -21s48.667 -33.333 66 -58s30.333 -54.167 39 -88.5s13 -71.5 13 -111.5zM388 272c0 30 -2.16699 58.333 -6.5 85s-11.333 50.167 -21 70.5s-22.5 36.333 -38.5 48s-35.667 17.5 -59 17.5
s-43 -5.83301 -59 -17.5s-28.833 -27.667 -38.5 -48s-16.667 -43.833 -21 -70.5s-6.5 -55 -6.5 -85s2.16699 -58.5 6.5 -85.5s11.333 -50.667 21 -71s22.5 -36.5 38.5 -48.5s35.667 -18 59 -18s43 6 59 18s28.833 28.167 38.5 48.5s16.667 44 21 71s6.5 55.5 6.5 85.5z
M392 685c-4 -23.333 -12.0059 -42.668 -24.0059 -58.001s-29.667 -23 -53 -23c-11.333 0 -21.166 2.16699 -29.499 6.5s-16.166 9 -23.499 14s-14.833 9.66699 -22.5 14s-16.167 6.5 -25.5 6.5c-11.333 0 -20.166 -3.66699 -26.499 -11s-10.833 -16.666 -13.5 -27.999
l-40 13c4 23.333 12 42.5 24 57.5s29.667 22.5 53 22.5c10.667 0 20.334 -2.16699 29.001 -6.5s16.834 -9 24.501 -14s15.334 -9.66699 23.001 -14s16.167 -6.5 25.5 -6.5c11.333 0 20 3.83301 26 11.5s10.333 17.167 13 28.5z" />
    <glyph glyph-name="odieresis" unicode="&#xf6;" horiz-adv-x="526" 
d="M476 270c0 -40.667 -4.33301 -78 -13 -112s-21.667 -63.5 -39 -88.5s-39.333 -44.5 -66 -58.5s-58.334 -21 -95.001 -21s-68.334 7 -95.001 21s-48.834 33.5 -66.501 58.5s-30.667 54.5 -39 88.5s-12.5 71.333 -12.5 112c0 40 4.16699 77.167 12.5 111.5
s21.333 63.833 39 88.5s39.834 44 66.501 58s58.334 21 95.001 21s68.334 -7 95.001 -21s48.667 -33.333 66 -58s30.333 -54.167 39 -88.5s13 -71.5 13 -111.5zM388 272c0 30 -2.16699 58.333 -6.5 85s-11.333 50.167 -21 70.5s-22.5 36.333 -38.5 48s-35.667 17.5 -59 17.5
s-43 -5.83301 -59 -17.5s-28.833 -27.667 -38.5 -48s-16.667 -43.833 -21 -70.5s-6.5 -55 -6.5 -85s2.16699 -58.5 6.5 -85.5s11.333 -50.667 21 -71s22.5 -36.5 38.5 -48.5s35.667 -18 59 -18s43 6 59 18s28.833 28.167 38.5 48.5s16.667 44 21 71s6.5 55.5 6.5 85.5z
M227 654c0 -12 -4.33301 -22.333 -13 -31s-19 -13 -31 -13s-22.333 4.33301 -31 13s-13 19 -13 31s4.33301 22.333 13 31s19 13 31 13s22.333 -4.33301 31 -13s13 -19 13 -31zM387 654c0 -12 -4.33301 -22.333 -13 -31s-19 -13 -31 -13s-22.333 4.33301 -31 13
s-13 19 -13 31s4.33301 22.333 13 31s19 13 31 13s22.333 -4.33301 31 -13s13 -19 13 -31z" />
    <glyph glyph-name="divide" unicode="&#xf7;" horiz-adv-x="518" 
d="M310 495c0 -14 -5 -26 -15 -36s-22 -15 -36 -15s-26 5 -36 15s-15 22 -15 36s5 26 15 36s22 15 36 15s26 -5 36 -15s15 -22 15 -36zM62 307v54h394v-54h-394zM310 173c0 -14 -5 -26 -15 -36s-22 -15 -36 -15s-26 5 -36 15s-15 22 -15 36s5 26 15 36s22 15 36 15
s26 -5 36 -15s15 -22 15 -36z" />
    <glyph glyph-name="oslash" unicode="&#xf8;" horiz-adv-x="526" 
d="M476 270c0 -40.667 -4.33398 -77.999 -13.001 -111.999s-21.667 -63.5 -39 -88.5s-39.333 -44.5 -66 -58.5s-58.334 -21 -95.001 -21c-53.333 0 -97 15 -131 45l-47 -73l-29 18l52 81c-19.333 25.333 -33.833 55.666 -43.5 90.999s-14.5 74.666 -14.5 117.999
c0 40 4.16699 77.167 12.5 111.5s21.333 63.833 39 88.5s39.834 44 66.501 58s58.334 21 95.001 21c53.333 0 97 -15 131 -45l47 73l29 -18l-52 -81c19.333 -25.333 33.833 -55.666 43.5 -90.999s14.5 -74.333 14.5 -117zM355.999 445.001
c-10 16 -22.666 28.833 -37.999 38.5s-33.666 14.5 -54.999 14.5c-24.667 0 -45.334 -6.16699 -62.001 -18.5s-30 -28.833 -40 -49.5s-17.167 -44.667 -21.5 -72s-6.5 -56 -6.5 -86c0 -26 1.66699 -51 5 -75s8.66602 -45.667 15.999 -65zM393 272.001
c0 25.333 -1.50098 49.666 -4.50098 72.999s-8.16699 44.666 -15.5 63.999l-202 -313c10 -15.333 22.5 -27.666 37.5 -36.999s33.167 -14 54.5 -14c24.667 0 45.334 6.16699 62.001 18.5s30 28.833 40 49.5s17.167 44.834 21.5 72.501s6.5 56.5 6.5 86.5z" />
    <glyph glyph-name="ugrave" unicode="&#xf9;" horiz-adv-x="524" 
d="M453 30c-20.667 -11.333 -47.833 -20.833 -81.5 -28.5s-68.167 -11.5 -103.5 -11.5c-64.667 0 -113.667 14.167 -147 42.5s-50 72.833 -50 133.5v373h88v-376c0 -75.333 36.667 -113 110 -113c17.333 0 34.833 1.5 52.5 4.5s32.167 7.5 43.5 13.5v471h88v-509z
M264.001 599l-113 131.001c4 7.33301 9.83301 12.666 17.5 15.999s16.167 5 25.5 5c18.667 0 34.667 -5 48 -15l73 -137h-51z" />
    <glyph glyph-name="uacute" unicode="&#xfa;" horiz-adv-x="524" 
d="M453 30c-20.667 -11.333 -47.833 -20.833 -81.5 -28.5s-68.167 -11.5 -103.5 -11.5c-64.667 0 -113.667 14.167 -147 42.5s-50 72.833 -50 133.5v373h88v-376c0 -75.333 36.667 -113 110 -113c17.333 0 34.833 1.5 52.5 4.5s32.167 7.5 43.5 13.5v471h88v-509z
M274.001 599h-51l73 137c6.66699 5.33301 14.167 9.16602 22.5 11.499s16.833 3.5 25.5 3.5c9.33301 0 17.833 -1.66699 25.5 -5s13.5 -8.66602 17.5 -15.999z" />
    <glyph glyph-name="ucircumflex" unicode="&#xfb;" horiz-adv-x="524" 
d="M453 30c-20.667 -11.333 -47.833 -20.833 -81.5 -28.5s-68.167 -11.5 -103.5 -11.5c-64.667 0 -113.667 14.167 -147 42.5s-50 72.833 -50 133.5v373h88v-376c0 -75.333 36.667 -113 110 -113c17.333 0 34.833 1.5 52.5 4.5s32.167 7.5 43.5 13.5v471h88v-509z
M359.001 594l-96.998 82l-97 -82l-30 26l93 100c4.66699 5.33301 10.167 9.16602 16.5 11.499s12.166 3.5 17.499 3.5s11.166 -1.16699 17.499 -3.5s11.833 -6.16602 16.5 -11.499l93 -100z" />
    <glyph glyph-name="udieresis" unicode="&#xfc;" horiz-adv-x="524" 
d="M453 30c-20.667 -11.333 -47.833 -20.833 -81.5 -28.5s-68.167 -11.5 -103.5 -11.5c-64.667 0 -113.667 14.167 -147 42.5s-50 72.833 -50 133.5v373h88v-376c0 -75.333 36.667 -113 110 -113c17.333 0 34.833 1.5 52.5 4.5s32.167 7.5 43.5 13.5v471h88v-509z
M227.001 654c0 -12 -4.33301 -22.333 -13 -31s-19 -13 -31 -13s-22.333 4.33301 -31 13s-13 19 -13 31s4.33301 22.333 13 31s19 13 31 13s22.333 -4.33301 31 -13s13 -19 13 -31zM386.001 654c0 -12 -4.33301 -22.333 -13 -31s-19 -13 -31 -13s-22.333 4.33301 -31 13
s-13 19 -13 31s4.33301 22.333 13 31s19 13 31 13s22.333 -4.33301 31 -13s13 -19 13 -31z" />
    <glyph glyph-name="yacute" unicode="&#xfd;" horiz-adv-x="492" 
d="M215 -215l-94 0.00195312l89 215l-181 539h94l113 -391c2.66699 -8.66699 5.16699 -19.834 7.5 -33.501s3.83301 -24.834 4.5 -33.501h2c1.33301 8.66699 3.5 20 6.5 34s5.83301 25 8.5 33l117 391h83zM260 599.002h-51l73 137
c6.66699 5.33301 14.167 9.16602 22.5 11.499s16.833 3.5 25.5 3.5c9.33301 0 17.833 -1.66699 25.5 -5s13.5 -8.66602 17.5 -15.999z" />
    <glyph glyph-name="thorn" unicode="&#xfe;" 
d="M478 280c0 -43.333 -5.16602 -82.667 -15.499 -118s-25.5 -65.666 -45.5 -90.999s-44.5 -45 -73.5 -59s-62.167 -21 -99.5 -21c-15.333 0 -30.5 1.16699 -45.5 3.5s-28.167 5.5 -39.5 9.5v-219h-87v1000h87v-263c13.333 7.33301 29 13.166 47 17.499s38.333 6.5 61 6.5
c31.333 0 60 -6.16699 86 -18.5s48.167 -30 66.5 -53s32.666 -51 42.999 -84s15.5 -69.833 15.5 -110.5zM390.001 274.999c0 32 -3 61.333 -9 88s-15 49.667 -27 69s-27 34.5 -45 45.5s-39.333 16.5 -64 16.5c-15.333 0 -30.333 -1.83301 -45 -5.5
s-28.334 -8.5 -41.001 -14.5v-413c10 -4.66699 21.667 -8 35 -10s26.666 -3 39.999 -3c28 0 51.833 5.5 71.5 16.5s35.834 26.5 48.501 46.5s21.834 44 27.501 72s8.5 58.667 8.5 92z" />
    <glyph glyph-name="ydieresis" unicode="&#xff;" horiz-adv-x="492" 
d="M215 -215l-94 0.00195312l89 215l-181 539h94l113 -391c2.66699 -8.66699 5.16699 -19.834 7.5 -33.501s3.83301 -24.834 4.5 -33.501h2c1.33301 8.66699 3.5 20 6.5 34s5.83301 25 8.5 33l117 391h83zM218 654.002c0 -12 -4.33301 -22.333 -13 -31s-19 -13 -31 -13
s-22.333 4.33301 -31 13s-13 19 -13 31s4.33301 22.333 13 31s19 13 31 13s22.333 -4.33301 31 -13s13 -19 13 -31zM382 654.002c0 -12 -4.33301 -22.333 -13 -31s-19 -13 -31 -13s-22.333 4.33301 -31 13s-13 19 -13 31s4.33301 22.333 13 31s19 13 31 13
s22.333 -4.33301 31 -13s13 -19 13 -31z" />
    <glyph glyph-name="dotlessi" unicode="&#x131;" horiz-adv-x="242" 
d="M77 0v539h88v-539h-88z" />
    <glyph glyph-name="IJ" unicode="&#x132;" horiz-adv-x="504" 
d="M80 0v688h92v-688h-92zM424 74c0 -76.667 -18.5 -141 -55.5 -193s-90.5 -85.667 -160.5 -101v65c38.667 15.333 69 42 91 80s33 86 33 144v619h92v-614z" />
    <glyph glyph-name="ij" unicode="&#x133;" horiz-adv-x="488" 
d="M174 691c0 -13.333 -5.16699 -24.833 -15.5 -34.5s-22.833 -14.5 -37.5 -14.5s-27.167 4.83301 -37.5 14.5s-15.5 21.167 -15.5 34.5s5.16699 24.833 15.5 34.5s22.833 14.5 37.5 14.5s27.167 -4.83301 37.5 -14.5s15.5 -21.167 15.5 -34.5zM77 0v539h88v-539h-88z
M411 72c0 -78 -14.667 -141.334 -44 -190.001s-77 -83 -143 -103v60c18 10.667 33.333 22.834 46 36.501s23 29.5 31 47.5s13.667 38.333 17 61s5 48.667 5 78v477h88v-467zM420 690.999c0 -13.333 -5.16699 -24.833 -15.5 -34.5s-22.833 -14.5 -37.5 -14.5
s-27.167 4.83301 -37.5 14.5s-15.5 21.167 -15.5 34.5s5.16699 24.833 15.5 34.5s22.833 14.5 37.5 14.5s27.167 -4.83301 37.5 -14.5s15.5 -21.167 15.5 -34.5z" />
    <glyph glyph-name="Lslash" unicode="&#x141;" horiz-adv-x="421" 
d="M90 0v340l-69 -33v59l69 33v289h92v-249l90 44v-60l-90 -43v-318h207v-62h-299z" />
    <glyph glyph-name="lslash" unicode="&#x142;" horiz-adv-x="263" 
d="M175 447v-447h-88v409l-69 -34v56l69 34v320h88v-282l70 34v-55z" />
    <glyph glyph-name="OE" unicode="&#x152;" horiz-adv-x="758" 
d="M408 0c-10.667 -3.33301 -23 -5.83301 -37 -7.5s-29.333 -2.5 -46 -2.5c-47.333 0 -88.166 9.16699 -122.499 27.5s-62.5 43.5 -84.5 75.5s-38.167 69.5 -48.5 112.5s-15.5 89.167 -15.5 138.5s5.16699 95.5 15.5 138.5s26.5 80.5 48.5 112.5s50.167 57.167 84.5 75.5
s75.166 27.5 122.499 27.5c16.667 0 32 -0.833008 46 -2.5s26.333 -4.16699 37 -7.5h304v-62h-226v-240h205v-61h-205v-263h226v-62h-304zM400 630c-9.33301 3.33301 -20.3301 5.83496 -32.9971 7.50195s-25.667 2.5 -39 2.5c-34 0 -62.667 -8 -86 -24s-42 -37.5 -56 -64.5
s-24.167 -58.333 -30.5 -94s-9.5 -73.167 -9.5 -112.5s3.16699 -76.833 9.5 -112.5s16.666 -66.834 30.999 -93.501s33.166 -47.834 56.499 -63.501s51.666 -23.5 84.999 -23.5c28.667 0 52.667 3 72 9v569z" />
    <glyph glyph-name="oe" unicode="&#x153;" horiz-adv-x="846" 
d="M459 235c4 -55.333 19.668 -99.5029 47.001 -132.503s67 -49.5 119 -49.5c25.333 0 49.666 3.16699 72.999 9.5s42.333 13.833 57 22.5l23 -57c-18 -10.667 -41.167 -19.667 -69.5 -27s-58.5 -11 -90.5 -11c-46.667 0 -86.334 11.167 -119.001 33.5
s-57.667 52.833 -75 91.5c-13.333 -36 -33.666 -65.833 -60.999 -89.5s-62 -35.5 -104 -35.5c-35.333 0 -66 6.83301 -92 20.5s-47.667 33 -65 58s-30.333 54.5 -39 88.5s-13 71.667 -13 113c0 40.667 4.33301 78.167 13 112.5s21.667 63.833 39 88.5s39 43.834 65 57.501
s56.667 20.5 92 20.5c76.667 0 131.667 -39 165 -117c17.333 40.667 41.5 70.334 72.5 89.001s63.167 28 96.5 28c64.667 0 114.667 -21.167 150 -63.5s53 -107.166 53 -194.499v-6zM713.001 322.997c-1.33301 54.667 -11.667 96.833 -31 126.5s-50 44.5 -92 44.5
c-22 0 -41.5 -5 -58.5 -15s-31.167 -24 -42.5 -42s-19.833 -39.667 -25.5 -65s-8.5 -53.333 -8.5 -84v-5zM386 271.996c0 30 -2.16699 58.333 -6.5 85s-11.333 50.167 -21 70.5s-22.5 36.333 -38.5 48s-35.667 17.5 -59 17.5s-43 -5.83301 -59 -17.5
s-28.833 -27.667 -38.5 -48s-16.667 -43.833 -21 -70.5s-6.5 -55 -6.5 -85s2.16699 -58.5 6.5 -85.5s11.333 -50.667 21 -71s22.5 -36.5 38.5 -48.5s35.667 -18 59 -18s43 6 59 18s28.833 28.167 38.5 48.5s16.667 44 21 71s6.5 55.5 6.5 85.5z" />
    <glyph glyph-name="Scaron" unicode="&#x160;" horiz-adv-x="484" 
d="M431 181c0 -27.333 -5.16797 -52.666 -15.501 -75.999s-25 -43.5 -44 -60.5s-42 -30.333 -69 -40s-56.833 -14.5 -89.5 -14.5s-63.667 3.16699 -93 9.5s-54.666 15.833 -75.999 28.5l27 62c18.667 -11.333 39.667 -19.5 63 -24.5s47.333 -7.5 72 -7.5
c42.667 0 75.167 11.167 97.5 33.5s33.5 50.5 33.5 84.5c0 28 -7 50.833 -21 68.5s-31.667 33 -53 46s-44.166 25.167 -68.499 36.5s-47.166 25 -68.499 41s-39 35.833 -53 59.5s-21 54.167 -21 91.5c0 26.667 5 51.167 15 73.5s24 41.166 42 56.499s39.667 27.333 65 36
s53.333 13 84 13c28.667 0 55.667 -3.5 81 -10.5s47.333 -16.167 66 -27.5l-24 -56c-14.667 9.33301 -32.5 16.833 -53.5 22.5s-41.833 8.5 -62.5 8.5c-38.667 0 -68.667 -9.5 -90 -28.5s-32 -46.167 -32 -81.5c0 -28 7.16699 -50.5 21.5 -67.5s32.166 -31.833 53.499 -44.5
s44.333 -24.667 69 -36s47.667 -25 69 -41s39.166 -36.167 53.499 -60.5s21.5 -55.833 21.5 -94.5zM279.999 766c-4.66699 -5.33301 -10.1689 -9.16602 -16.502 -11.499s-12.166 -3.5 -17.499 -3.5s-11.166 1.16699 -17.499 3.5s-11.833 6.16602 -16.5 11.499l-93 100l30 26
l97 -81l97 81l30 -26z" />
    <glyph glyph-name="scaron" unicode="&#x161;" horiz-adv-x="418" 
d="M370 149c0 -22 -4.5 -42.501 -13.5 -61.501s-21.5 -35.833 -37.5 -50.5s-35.333 -26.167 -58 -34.5s-47.667 -12.5 -75 -12.5c-26.667 0 -53.167 3.33301 -79.5 10s-48.166 15.667 -65.499 27l25 56c16 -10 33.667 -17.667 53 -23s38.666 -8 57.999 -8
c32 0 57.333 8.83301 76 26.5s28 39.834 28 66.501c0 22 -5.66699 39.5 -17 52.5s-25.333 24 -42 33s-35 17.5 -55 25.5s-38.333 17.833 -55 29.5s-30.667 26.5 -42 44.5s-17 42 -17 72c0 20.667 4 40 12 58s19.333 33.5 34 46.5s32.167 23.333 52.5 31
s42.833 11.5 67.5 11.5c52.667 0 97.667 -12.333 135 -37l-23 -52c-14 9.33301 -29.833 16.833 -47.5 22.5s-35.167 8.5 -52.5 8.5c-31.333 0 -54.333 -8.33301 -69 -25s-22 -36.667 -22 -60c0 -20.667 5.66699 -37 17 -49s25.5 -22.5 42.5 -31.5s35.5 -17.5 55.5 -25.5
s38.5 -18 55.5 -30s31.167 -27.5 42.5 -46.5s17 -43.833 17 -74.5zM245 616.999c-4.66699 -5.33301 -10.1689 -9.16602 -16.502 -11.499s-12.166 -3.5 -17.499 -3.5s-11.166 1.16699 -17.499 3.5s-11.833 6.16602 -16.5 11.499l-93 100l30 26l97 -81l97 81l30 -26z" />
    <glyph glyph-name="Ydieresis" unicode="&#x178;" horiz-adv-x="501" 
d="M297 305v-305h-92v305l-188 383h99l138 -311h2l142 311h88zM221 803c0 -12 -4.33301 -22.333 -13 -31s-19 -13 -31 -13s-22.333 4.33301 -31 13s-13 19 -13 31s4.33301 22.333 13 31s19 13 31 13s22.333 -4.33301 31 -13s13 -19 13 -31zM380 803
c0 -12 -4.33301 -22.333 -13 -31s-19 -13 -31 -13s-22.333 4.33301 -31 13s-13 19 -13 31s4.33301 22.333 13 31s19 13 31 13s22.333 -4.33301 31 -13s13 -19 13 -31z" />
    <glyph glyph-name="Zcaron" unicode="&#x17d;" horiz-adv-x="444" 
d="M24 0l263 626h-247v62h364l-260 -626h267v-62h-387zM254 762c-4.66699 -5.33301 -10.1689 -9.16602 -16.502 -11.499s-12.166 -3.5 -17.499 -3.5s-11.166 1.16699 -17.499 3.5s-11.833 6.16602 -16.5 11.499l-93 100l30 26l97 -81l97 81l30 -26z" />
    <glyph glyph-name="zcaron" unicode="&#x17e;" horiz-adv-x="417" 
d="M30 0l227 484h-210v55h323l-225 -484h233v-55h-348zM239 613c-4.66699 -5.33301 -10.1689 -9.16602 -16.502 -11.499s-12.166 -3.5 -17.499 -3.5s-11.166 1.16699 -17.499 3.5s-11.833 6.16602 -16.5 11.499l-93 100l30 26l97 -81l97 81l30 -26z" />
    <glyph glyph-name="longs" unicode="&#x17f;" horiz-adv-x="312" 
d="M300 722c-13.333 4 -27.333 6 -42 6c-32 0 -55.5 -10 -70.5 -30s-22.5 -49 -22.5 -87v-826h-87v822c0 56.667 14.833 101.167 44.5 133.5s70.5 48.5 122.5 48.5c12 0 24 -0.833008 36 -2.5s22.333 -4.16699 31 -7.5z" />
    <glyph glyph-name="florin" unicode="&#x192;" 
d="M476 623c-6.66699 3.33301 -14.9971 5.83398 -24.9971 7.50098s-19.667 2.5 -29 2.5c-34 0 -59.667 -14 -77 -42s-29 -65.333 -35 -112l-9 -74h117v-59h-125l-45 -346c-9.33301 -69.333 -29.5 -123.5 -60.5 -162.5s-75.167 -58.5 -132.5 -58.5
c-13.333 0 -26.833 1.5 -40.5 4.5s-25.167 6.83301 -34.5 11.5l13 60c6.66699 -3.33301 15.167 -6 25.5 -8s20.166 -3 29.499 -3c33.333 0 58.833 14.167 76.5 42.5s29.5 66.166 35.5 113.499l45 346h-103v59h111l9 74c9.33301 68.667 29.166 121.667 59.499 159
s74.166 56 131.499 56c13.333 0 26.833 -1.16699 40.5 -3.5s25.167 -5.83301 34.5 -10.5z" />
    <glyph glyph-name="uni02BB" unicode="&#x2bb;" horiz-adv-x="257" 
d="M136 558c-11.333 -18 -28.667 -27 -52 -27c-11.333 0 -20 2.5 -26 7.5s-10 11.5 -12 19.5l117 227h50z" />
    <glyph glyph-name="afii57929" unicode="&#x2bc;" horiz-adv-x="257" 
d="M94 538h-49.999l78 227c11.333 18 28.666 27 51.999 27c11.333 0 19.833 -2.5 25.5 -7.5s9.5 -11.5 11.5 -19.5z" />
    <glyph glyph-name="circumflex" unicode="&#x2c6;" horiz-adv-x="242" 
d="M218 594l-96.998 82l-97 -82l-30 26l93 100c4.66699 5.33301 10.167 9.16602 16.5 11.499s12.166 3.5 17.499 3.5s11.166 -1.16699 17.499 -3.5s11.833 -6.16602 16.5 -11.499l93 -100z" />
    <glyph glyph-name="caron" unicode="&#x2c7;" horiz-adv-x="242" 
d="M155 613c-4.66699 -5.33301 -10.1689 -9.16602 -16.502 -11.499s-12.166 -3.5 -17.499 -3.5s-11.166 1.16699 -17.499 3.5s-11.833 6.16602 -16.5 11.499l-93 100l30 26l97 -81l97 81l30 -26z" />
    <glyph glyph-name="uni02C9" unicode="&#x2c9;" horiz-adv-x="242" 
d="M-4 616v53h250v-53h-250z" />
    <glyph glyph-name="breve" unicode="&#x2d8;" horiz-adv-x="242" 
d="M242 725c0 -20 -3.16504 -37.833 -9.49805 -53.5s-15 -28.834 -26 -39.501s-23.833 -18.834 -38.5 -24.501s-30.334 -8.5 -47.001 -8.5s-32.334 2.83301 -47.001 8.5s-27.5 13.834 -38.5 24.501s-19.667 23.834 -26 39.501s-9.5 33.5 -9.5 53.5l42 7
c3.33301 -26.667 12.333 -46.5 27 -59.5s32 -19.5 52 -19.5s37.333 6.5 52 19.5s23.667 32.833 27 59.5z" />
    <glyph glyph-name="dotaccent" unicode="&#x2d9;" horiz-adv-x="242" 
d="M170 659c0 -13.333 -4.83301 -24.833 -14.5 -34.5s-21.167 -14.5 -34.5 -14.5s-24.833 4.83301 -34.5 14.5s-14.5 21.167 -14.5 34.5s4.83301 24.833 14.5 34.5s21.167 14.5 34.5 14.5s24.833 -4.83301 34.5 -14.5s14.5 -21.167 14.5 -34.5z" />
    <glyph glyph-name="ring" unicode="&#x2da;" horiz-adv-x="242" 
d="M202 679c0 -22.667 -7.83301 -41.834 -23.5 -57.501s-34.834 -23.5 -57.501 -23.5s-41.834 7.83301 -57.501 23.5s-23.5 34.834 -23.5 57.501s7.83301 41.834 23.5 57.501s34.834 23.5 57.501 23.5s41.834 -7.83301 57.501 -23.5s23.5 -34.834 23.5 -57.501zM166 679
c0 12.667 -4.33301 23.5 -13 32.5s-19.334 13.5 -32.001 13.5s-23.334 -4.5 -32.001 -13.5s-13 -19.833 -13 -32.5s4.33301 -23.5 13 -32.5s19.334 -13.5 32.001 -13.5s23.334 4.5 32.001 13.5s13 19.833 13 32.5z" />
    <glyph glyph-name="ogonek" unicode="&#x2db;" horiz-adv-x="242" 
d="M228 -164c-22.667 -10.667 -49.666 -16.001 -80.999 -16.001s-58 6.83301 -80 20.5s-33 34.834 -33 63.501c0 22.667 8.5 43.167 25.5 61.5s37.167 33.5 60.5 45.5h58c-50 -29.333 -75 -61.333 -75 -96c0 -14 5.33301 -25.833 16 -35.5s25 -14.5 43 -14.5
c9.33301 0 19.166 1 29.499 3s19.5 4.66699 27.5 8z" />
    <glyph glyph-name="tilde" unicode="&#x2dc;" horiz-adv-x="242" 
d="M250 685c-4 -23.333 -12.0059 -42.668 -24.0059 -58.001s-29.667 -23 -53 -23c-11.333 0 -21.166 2.16699 -29.499 6.5s-16.166 9 -23.499 14s-14.833 9.66699 -22.5 14s-16.167 6.5 -25.5 6.5c-11.333 0 -20.166 -3.66699 -26.499 -11s-10.833 -16.666 -13.5 -27.999
l-40 13c4 23.333 12 42.5 24 57.5s29.667 22.5 53 22.5c10.667 0 20.334 -2.16699 29.001 -6.5s16.834 -9 24.501 -14s15.334 -9.66699 23.001 -14s16.167 -6.5 25.5 -6.5c11.333 0 20 3.83301 26 11.5s10.333 17.167 13 28.5z" />
    <glyph glyph-name="hungarumlaut" unicode="&#x2dd;" horiz-adv-x="242" 
d="M187 599h-43l83 134c10.667 10 23.334 15 38.001 15c15.333 0 25.666 -6.33301 30.999 -19zM59 599h-43l83 134c10.667 10 23.334 15 38.001 15c15.333 0 25.666 -6.33301 30.999 -19z" />
    <glyph glyph-name="uni037E" unicode="&#x37e;" horiz-adv-x="263" 
d="M195 356c0 -16 -5.5 -29.667 -16.5 -41s-24.5 -17 -40.5 -17s-29.667 5.66699 -41 17s-17 25 -17 41s5.66699 29.5 17 40.5s25 16.5 41 16.5s29.5 -5.5 40.5 -16.5s16.5 -24.5 16.5 -40.5zM77 -145h-53l76 225c12.667 19.333 31.334 29 56.001 29
c11.333 0 20.666 -2.66699 27.999 -8s12 -12.333 14 -21z" />
    <glyph glyph-name="uni0394" unicode="&#x394;" horiz-adv-x="590" 
d="M19 0l232 688h87l233 -688h-552zM313 523c-5.33301 17.333 -9.49902 33.6689 -12.499 49.002s-5.5 28.666 -7.5 39.999h-2c-2 -11.333 -4.83301 -25.333 -8.5 -42s-7.83398 -32.334 -12.501 -47.001l-147 -465h335z" />
    <glyph glyph-name="uni03A9" unicode="&#x3a9;" horiz-adv-x="616" 
d="M346 0v61c40 46 70.5 96.333 91.5 151s31.5 112.334 31.5 173.001c0 30.667 -3.16699 60.834 -9.5 90.501s-16 56.334 -29 80.001s-29.667 42.834 -50 57.501s-44.5 22 -72.5 22s-52.167 -7.33301 -72.5 -22s-37 -33.834 -50 -57.501s-22.667 -50.334 -29 -80.001
s-9.5 -59.834 -9.5 -90.501c0 -60.667 10.5 -118.334 31.5 -173.001s51.5 -105 91.5 -151v-61h-217v62h139c-42 46 -75.5 96.5 -100.5 151.5s-37.5 113.5 -37.5 175.5c0 40 5.33301 78.667 16 116s26.5 70.166 47.5 98.499s47.5 51.166 79.5 68.499s69 26 111 26
s79 -8.66699 111 -26s58.5 -40.166 79.5 -68.499s36.833 -61.166 47.5 -98.499s16 -76 16 -116c0 -62 -12.5 -120.5 -37.5 -175.5s-58.5 -105.5 -100.5 -151.5h139v-62h-217z" />
    <glyph glyph-name="uni03BC" unicode="&#x3bc;" horiz-adv-x="527" 
d="M456 42c-23.333 -16 -50.167 -28.667 -80.5 -38s-61.833 -14 -94.5 -14c-20.667 0 -41.5 2.33301 -62.5 7s-39.833 12 -56.5 22v-234h-88v754h88v-458c14 -10 30.5 -17.833 49.5 -23.5s38.167 -8.5 57.5 -8.5c18.667 0 36.667 2.66699 54 8s32.333 12.333 45 21v461h88
v-497z" />
    <glyph glyph-name="pi" unicode="&#x3c0;" horiz-adv-x="578" 
d="M467 482v-482h-87v482h-170l-63 -482h-88l65 482h-77v57h493v-57h-73z" />
    <glyph glyph-name="uni2007" unicode="&#x2007;" 
 />
    <glyph glyph-name="uni2008" unicode="&#x2008;" horiz-adv-x="250" 
 />
    <glyph glyph-name="uni200B" unicode="&#x200b;" horiz-adv-x="0" 
 />
    <glyph glyph-name="endash" unicode="&#x2013;" horiz-adv-x="376" 
d="M0 301v66h376v-66h-376z" />
    <glyph glyph-name="emdash" unicode="&#x2014;" horiz-adv-x="752" 
d="M0 303v62h752v-62h-752z" />
    <glyph glyph-name="quoteleft" unicode="&#x2018;" horiz-adv-x="257" 
d="M136 558c-11.333 -18 -28.667 -27 -52 -27c-11.333 0 -20 2.5 -26 7.5s-10 11.5 -12 19.5l117 227h50z" />
    <glyph glyph-name="quoteright" unicode="&#x2019;" horiz-adv-x="257" 
d="M94 538h-49.999l78 227c11.333 18 28.666 27 51.999 27c11.333 0 19.833 -2.5 25.5 -7.5s9.5 -11.5 11.5 -19.5z" />
    <glyph glyph-name="quotesinglbase" unicode="&#x201a;" horiz-adv-x="257" 
d="M94 -145h-49.999l78 227c11.333 18 28.666 27 51.999 27c11.333 0 19.833 -2.5 25.5 -7.5s9.5 -11.5 11.5 -19.5z" />
    <glyph glyph-name="quotedblleft" unicode="&#x201c;" horiz-adv-x="432" 
d="M310 558c-11.333 -18 -28.667 -27 -52 -27c-11.333 0 -19.833 2.5 -25.5 7.5s-9.5 11.5 -11.5 19.5l117 227h50zM135.999 558c-11.333 -18 -28.667 -27 -52 -27c-11.333 0 -20 2.5 -26 7.5s-10 11.5 -12 19.5l117 227h50z" />
    <glyph glyph-name="quotedblright" unicode="&#x201d;" horiz-adv-x="432" 
d="M269 538h-49.999l77 227c11.333 18 28.666 27 51.999 27c11.333 0 20 -2.5 26 -7.5s10 -11.5 12 -19.5zM94.001 538h-49.999l78 227c11.333 18 28.666 27 51.999 27c11.333 0 19.833 -2.5 25.5 -7.5s9.5 -11.5 11.5 -19.5z" />
    <glyph glyph-name="quotedblbase" unicode="&#x201e;" horiz-adv-x="432" 
d="M269 -145h-49.999l77 227c11.333 18 28.666 27 51.999 27c11.333 0 20 -2.5 26 -7.5s10 -11.5 12 -19.5zM94.001 -145h-49.999l78 227c11.333 18 28.666 27 51.999 27c11.333 0 19.833 -2.5 25.5 -7.5s9.5 -11.5 11.5 -19.5z" />
    <glyph glyph-name="dagger" unicode="&#x2020;" horiz-adv-x="564" 
d="M319 467l10 -682h-94l10 682l-191 -10v88l191 -10l-10 250h94l-10 -250l191 10v-88z" />
    <glyph glyph-name="daggerdbl" unicode="&#x2021;" horiz-adv-x="564" 
d="M319 176l10 -391h-94l10 391l-191 -9v86l191 -10v225l-191 -10v87l191 -10l-10 250h94l-10 -250l191 10v-87l-191 10v-225l191 10v-86z" />
    <glyph glyph-name="bullet" unicode="&#x2022;" horiz-adv-x="324" 
d="M256 356c0 -13.333 -2.5 -25.666 -7.5 -36.999s-11.667 -21.166 -20 -29.499s-18.333 -15 -30 -20s-23.834 -7.5 -36.501 -7.5c-13.333 0 -25.666 2.5 -36.999 7.5s-21.166 11.667 -29.499 20s-15 18.166 -20 29.499s-7.5 23.666 -7.5 36.999
c0 12.667 2.5 24.834 7.5 36.501s11.667 21.667 20 30s18.166 15 29.499 20s23.666 7.5 36.999 7.5c12.667 0 24.834 -2.5 36.501 -7.5s21.667 -11.667 30 -20s15 -18.333 20 -30s7.5 -23.834 7.5 -36.501z" />
    <glyph glyph-name="ellipsis" unicode="&#x2026;" horiz-adv-x="750" 
d="M182 51c0 -15.333 -5.66699 -28.666 -17 -39.999s-24.666 -17 -39.999 -17s-28.666 5.66699 -39.999 17s-17 24.666 -17 39.999s5.66699 28.666 17 39.999s24.666 17 39.999 17s28.666 -5.66699 39.999 -17s17 -24.666 17 -39.999zM432 51
c0 -15.333 -5.66699 -28.666 -17 -39.999s-24.666 -17 -39.999 -17s-28.666 5.66699 -39.999 17s-17 24.666 -17 39.999s5.66699 28.666 17 39.999s24.666 17 39.999 17s28.666 -5.66699 39.999 -17s17 -24.666 17 -39.999zM682 51c0 -15.333 -5.66699 -28.666 -17 -39.999
s-24.666 -17 -39.999 -17s-28.666 5.66699 -39.999 17s-17 24.666 -17 39.999s5.66699 28.666 17 39.999s24.666 17 39.999 17s28.666 -5.66699 39.999 -17s17 -24.666 17 -39.999z" />
    <glyph glyph-name="perthousand" unicode="&#x2030;" horiz-adv-x="1148" 
d="M1090 186c0 -24.667 -2.66699 -48.834 -8 -72.501s-13.666 -44.667 -24.999 -63s-25.5 -33 -42.5 -44s-36.833 -16.5 -59.5 -16.5c-23.333 0 -43.333 5.5 -60 16.5s-30.667 25.667 -42 44s-19.666 39.333 -24.999 63s-8 47.834 -8 72.501s2.66699 48.834 8 72.501
s13.666 44.667 24.999 63s25.333 33 42 44s36.667 16.5 60 16.5c22.667 0 42.5 -5.5 59.5 -16.5s31.167 -25.667 42.5 -44s19.666 -39.333 24.999 -63s8 -47.834 8 -72.501zM747 186c0 -24.667 -2.66699 -48.834 -8 -72.501s-13.666 -44.667 -24.999 -63
s-25.5 -33 -42.5 -44s-36.833 -16.5 -59.5 -16.5c-23.333 0 -43.333 5.5 -60 16.5s-30.667 25.667 -42 44s-19.666 39.333 -24.999 63s-8 47.834 -8 72.501s2.66699 48.834 8 72.501s13.666 44.667 24.999 63s25.333 33 42 44s36.667 16.5 60 16.5
c22.667 0 42.5 -5.5 59.5 -16.5s31.167 -25.667 42.5 -44s19.666 -39.333 24.999 -63s8 -47.834 8 -72.501zM308 -8l-49 16l237 688l49 -16zM328 502c0 -24.667 -2.66699 -48.834 -8 -72.501s-13.666 -44.667 -24.999 -63s-25.5 -33 -42.5 -44s-36.833 -16.5 -59.5 -16.5
c-23.333 0 -43.333 5.5 -60 16.5s-30.667 25.667 -42 44s-19.666 39.333 -24.999 63s-8 47.834 -8 72.501s2.66699 48.834 8 72.501s13.666 44.667 24.999 63s25.333 33 42 44s36.667 16.5 60 16.5c22.667 0 42.5 -5.5 59.5 -16.5s31.167 -25.667 42.5 -44
s19.666 -39.333 24.999 -63s8 -47.834 8 -72.501zM1027 188c0 18.667 -1.16699 37.167 -3.5 55.5s-6.33301 34.833 -12 49.5s-13 26.334 -22 35.001s-20.5 13 -34.5 13s-25.5 -4.33301 -34.5 -13s-16.333 -20.334 -22 -35.001s-9.66699 -31.167 -12 -49.5
s-3.5 -36.833 -3.5 -55.5c0 -19.333 1.16699 -38.166 3.5 -56.499s6.33301 -34.666 12 -48.999s13 -26 22 -35s20.5 -13.5 34.5 -13.5s25.5 4.5 34.5 13.5s16.333 20.667 22 35s9.66699 30.666 12 48.999s3.5 37.166 3.5 56.499zM684 188
c0 18.667 -1.16699 37.167 -3.5 55.5s-6.33301 34.833 -12 49.5s-13 26.334 -22 35.001s-20.5 13 -34.5 13s-25.5 -4.33301 -34.5 -13s-16.333 -20.334 -22 -35.001s-9.66699 -31.167 -12 -49.5s-3.5 -36.833 -3.5 -55.5c0 -19.333 1.16699 -38.166 3.5 -56.499
s6.33301 -34.666 12 -48.999s13 -26 22 -35s20.5 -13.5 34.5 -13.5s25.5 4.5 34.5 13.5s16.333 20.667 22 35s9.66699 30.666 12 48.999s3.5 37.166 3.5 56.499zM265 504c0 18.667 -1.16699 37.167 -3.5 55.5s-6.33301 34.833 -12 49.5s-13 26.334 -22 35.001
s-20.5 13 -34.5 13s-25.5 -4.33301 -34.5 -13s-16.333 -20.334 -22 -35.001s-9.66699 -31.167 -12 -49.5s-3.5 -36.833 -3.5 -55.5c0 -19.333 1.16699 -38.166 3.5 -56.499s6.33301 -34.666 12 -48.999s13 -26 22 -35s20.5 -13.5 34.5 -13.5s25.5 4.5 34.5 13.5
s16.333 20.667 22 35s9.66699 30.666 12 48.999s3.5 37.166 3.5 56.499z" />
    <glyph glyph-name="guilsinglleft" unicode="&#x2039;" horiz-adv-x="296" 
d="M182 108l-130 226l130 226l52 -31l-113 -195l113 -195z" />
    <glyph glyph-name="guilsinglright" unicode="&#x203a;" horiz-adv-x="296" 
d="M114 108l-52 31l113 195l-113 195l52 31l130 -226z" />
    <glyph glyph-name="fraction" unicode="&#x2044;" horiz-adv-x="131" 
d="M-74 -12l-49 23l315 689l49 -23z" />
    <glyph glyph-name="uni2070" unicode="&#x2070;" horiz-adv-x="338" 
d="M303 682c0 -26.667 -2.33301 -52.834 -7 -78.501s-12.334 -48.5 -23.001 -68.5s-24.5 -36 -41.5 -48s-37.833 -18 -62.5 -18s-45.5 6 -62.5 18s-30.833 28 -41.5 48s-18.334 42.833 -23.001 68.5s-7 51.834 -7 78.501s2.33301 52.834 7 78.501s12.334 48.5 23.001 68.5
s24.5 36 41.5 48s37.833 18 62.5 18s45.5 -6 62.5 -18s30.833 -28 41.5 -48s18.334 -42.833 23.001 -68.5s7 -51.834 7 -78.501zM238 683c0 20.667 -1 41.167 -3 61.5s-5.5 38.5 -10.5 54.5s-12 29 -21 39s-20.5 15 -34.5 15s-25.5 -5 -34.5 -15s-16 -23 -21 -39
s-8.5 -34.167 -10.5 -54.5s-3 -40.833 -3 -61.5c0 -21.333 1 -42 3 -62s5.5 -38 10.5 -54s12 -28.833 21 -38.5s20.5 -14.5 34.5 -14.5s25.5 4.83301 34.5 14.5s16 22.5 21 38.5s8.5 34 10.5 54s3 40.667 3 62z" />
    <glyph glyph-name="uni2074" unicode="&#x2074;" horiz-adv-x="338" 
d="M267 567v-91h-61v91h-172v40l170 281h63v-282h35v-39h-35zM207 827c-8 -19.333 -17.667 -38.668 -29 -58.001l-96 -163h125v159c0 11.333 0.166992 21.833 0.5 31.5s0.833008 19.834 1.5 30.501h-2z" />
    <glyph glyph-name="uni2075" unicode="&#x2075;" horiz-adv-x="338" 
d="M288 595c0 -17.333 -3.50098 -33.668 -10.501 -49.001s-17 -28.666 -30 -39.999s-28.333 -20.333 -46 -27s-37.5 -10 -59.5 -10c-20.667 0 -41 1.66699 -61 5s-37 8.66602 -51 15.999l19 45c10.667 -5.33301 23.334 -9.66602 38.001 -12.999s29.667 -5 45 -5
c27.333 0 48.666 7.83301 63.999 23.5s23 34.167 23 55.5c0 25.333 -8.16699 46 -24.5 62s-43.5 24 -81.5 24c-9.33301 0 -19.166 -0.5 -29.499 -1.5s-20.833 -2.16699 -31.5 -3.5l24 211h199v-52h-152l-14 -117c4 0.666992 8.5 1.16699 13.5 1.5s10.5 0.5 16.5 0.5
c48.667 0 85.667 -11.5 111 -34.5s38 -53.5 38 -91.5z" />
    <glyph glyph-name="uni2076" unicode="&#x2076;" horiz-adv-x="338" 
d="M304 599c0 -17.333 -2.66895 -33.834 -8.00195 -49.501s-13.5 -29.5 -24.5 -41.5s-24.667 -21.5 -41 -28.5s-35.833 -10.5 -58.5 -10.5c-44 0 -77.5 14 -100.5 42s-34.5 66.333 -34.5 115c0 36.667 5.83301 69.834 17.5 99.501s27.5 55.834 47.5 78.501
s43.333 41.667 70 57s55.334 26.666 86.001 33.999l14 -44c-37.333 -11.333 -69.166 -27.5 -95.499 -48.5s-47.166 -50.5 -62.499 -88.5c8 3.33301 16.667 5.83301 26 7.5s18.666 2.5 27.999 2.5c42 0 75.167 -10.833 99.5 -32.5s36.5 -52.5 36.5 -92.5zM240.998 598.999
c0 59.333 -28.667 89.001 -86 89.001c-18 0 -35 -3 -51 -9c-2 -10 -3.16699 -18.833 -3.5 -26.5s-0.5 -17.167 -0.5 -28.5c0 -35.333 5.83301 -62.833 17.5 -82.5s30.167 -29.5 55.5 -29.5c24 0 41.333 8.66699 52 26s16 37.666 16 60.999z" />
    <glyph glyph-name="uni2077" unicode="&#x2077;" horiz-adv-x="338" 
d="M251 760c-12 -27.333 -23.333 -54.667 -34 -82l-30 -78.5c-9.33301 -25 -17.333 -48.167 -24 -69.5s-12 -39.333 -16 -54h-81l161 359h-190v53h270z" />
    <glyph glyph-name="uni2078" unicode="&#x2078;" horiz-adv-x="338" 
d="M304 574c0 -32 -12.835 -57.5 -38.502 -76.5s-57.834 -28.5 -96.501 -28.5c-18 0 -35.167 2.33301 -51.5 7s-30.666 11.334 -42.999 20.001s-22.166 19.5 -29.499 32.5s-11 28.167 -11 45.5c0 15.333 2.5 28.833 7.5 40.5s11.833 22 20.5 31s18.5 17.167 29.5 24.5
s22.5 14.333 34.5 21c-21.333 12.667 -39.833 26.667 -55.5 42s-23.5 36.333 -23.5 63c0 30 11.833 54 35.5 72s52.5 27 86.5 27s62.833 -9 86.5 -27s35.5 -42 35.5 -72c0 -26 -7.66699 -46.667 -23 -62s-33.666 -29 -54.999 -41c12 -6.66699 23.5 -13.834 34.5 -21.501
s20.667 -16.167 29 -25.5s15 -19.833 20 -31.5s7.5 -25.167 7.5 -40.5zM235.998 796c0 18.667 -6.16699 33.5 -18.5 44.5s-28.166 16.5 -47.499 16.5s-35 -5.5 -47 -16.5s-18 -25.833 -18 -44.5c0 -19.333 6.16699 -34.833 18.5 -46.5s28.166 -23.167 47.499 -34.5
c19.333 11.333 35 22.833 47 34.5s18 27.167 18 46.5zM241.998 575c0 23.333 -7 41.832 -21 55.499s-31.667 26.5 -53 38.5c-21.333 -12 -39 -24.667 -53 -38s-21 -31.666 -21 -54.999c0 -20 7.33301 -35.833 22 -47.5s32 -17.5 52 -17.5c21.333 0 39 5.83301 53 17.5
s21 27.167 21 46.5z" />
    <glyph glyph-name="uni2079" unicode="&#x2079;" horiz-adv-x="338" 
d="M301 738c0 -36.667 -5.66504 -69.833 -16.998 -99.5s-27 -55.834 -47 -78.501s-43.333 -41.667 -70 -57s-55.334 -26.666 -86.001 -33.999l-15 44c36.667 11.333 68.5 27.5 95.5 48.5s48.167 50.5 63.5 88.5c-8 -3.33301 -16.667 -5.83301 -26 -7.5
s-18.666 -2.5 -27.999 -2.5c-42 0 -75.333 10.833 -100 32.5s-37 52.5 -37 92.5c0 18 3 34.833 9 50.5s14.667 29.5 26 41.5s25.166 21.333 41.499 28s35.166 10 56.499 10c44 0 77.333 -14 100 -42s34 -66.333 34 -115zM239.002 741.001c0 35.333 -5.83301 63 -17.5 83
s-30.167 30 -55.5 30c-24 0 -41.333 -8.83301 -52 -26.5s-16 -38.167 -16 -61.5c0 -59.333 28.333 -89 85 -89c18 0 35 3 51 9c2 10 3.33301 18.833 4 26.5s1 17.167 1 28.5z" />
    <glyph glyph-name="uni207A" unicode="&#x207a;" horiz-adv-x="354" 
d="M203 661v-99h-52v99h-98v48h98v98h52v-98h98v-48h-98z" />
    <glyph glyph-name="uni207B" unicode="&#x207b;" horiz-adv-x="354" 
d="M53 661v48h248v-48h-248z" />
    <glyph glyph-name="uni207C" unicode="&#x207c;" horiz-adv-x="354" 
d="M53 720v48h248v-48h-248zM53 601v49h248v-49h-248z" />
    <glyph glyph-name="uni207D" unicode="&#x207d;" horiz-adv-x="216" 
d="M166 385c-41.333 40.667 -73 85.832 -95 135.499s-33 103.5 -33 161.5s11 111.833 33 161.5s53.667 94.834 95 135.501l34 -25c-30.667 -38 -54.167 -80.333 -70.5 -127s-24.5 -95 -24.5 -145s8.16699 -98.333 24.5 -145s39.833 -89 70.5 -127z" />
    <glyph glyph-name="uni207E" unicode="&#x207e;" horiz-adv-x="216" 
d="M178 682c0 -58 -11 -111.831 -33 -161.498s-53.667 -94.834 -95 -135.501l-34 25c30.667 38 54.167 80.333 70.5 127s24.5 95 24.5 145s-8.16699 98.333 -24.5 145s-39.833 89 -70.5 127l34 25c41.333 -40.667 73 -85.834 95 -135.501s33 -103.5 33 -161.5z" />
    <glyph glyph-name="uni207F" unicode="&#x207f;" horiz-adv-x="378" 
d="M256 476l0.000976562 241c0 22 -5.5 39.5 -16.5 52.5s-29.167 19.5 -54.5 19.5c-24.667 0 -45.667 -3.66699 -63 -11v-302h-67v330c17.333 7.33301 37.5 13.333 60.5 18s46.167 7 69.5 7c49.333 0 84.666 -10 105.999 -30s32 -47.333 32 -82v-243h-67z" />
    <glyph glyph-name="uni2080" unicode="&#x2080;" horiz-adv-x="338" 
d="M303 -9c0 -26.667 -2.33301 -52.834 -7 -78.501s-12.334 -48.5 -23.001 -68.5s-24.5 -36 -41.5 -48s-37.833 -18 -62.5 -18s-45.5 6 -62.5 18s-30.833 28 -41.5 48s-18.334 42.833 -23.001 68.5s-7 51.834 -7 78.501s2.33301 52.834 7 78.501s12.334 48.5 23.001 68.5
s24.5 36 41.5 48s37.833 18 62.5 18s45.5 -6 62.5 -18s30.833 -28 41.5 -48s18.334 -42.833 23.001 -68.5s7 -51.834 7 -78.501zM238 -8c0 20.667 -1 41.167 -3 61.5s-5.5 38.5 -10.5 54.5s-12 29 -21 39s-20.5 15 -34.5 15s-25.5 -5 -34.5 -15s-16 -23 -21 -39
s-8.5 -34.167 -10.5 -54.5s-3 -40.833 -3 -61.5c0 -21.333 1 -42 3 -62s5.5 -38 10.5 -54s12 -28.833 21 -38.5s20.5 -14.5 34.5 -14.5s25.5 4.83301 34.5 14.5s16 22.5 21 38.5s8.5 34 10.5 54s3 40.667 3 62z" />
    <glyph glyph-name="uni2081" unicode="&#x2081;" horiz-adv-x="338" 
d="M169 -215v336.002c-12 -6.66699 -28 -12.334 -48 -17.001s-38.667 -7.66699 -56 -9l-9 39c30 4 57 11.167 81 21.5s41.667 24.166 53 41.499h48v-412h-69z" />
    <glyph glyph-name="uni2082" unicode="&#x2082;" horiz-adv-x="338" 
d="M21 -215l152 214c13.333 19.333 22.333 35.666 27 48.999s7 26.333 7 39c0 46 -26.667 69 -80 69c-13.333 0 -26.833 -1.5 -40.5 -4.5s-25.5 -7.16699 -35.5 -12.5l-17 42c14.667 7.33301 31.167 13 49.5 17s37.5 6 57.5 6c47.333 0 81.833 -10.167 103.5 -30.5
s32.5 -47.166 32.5 -80.499c0 -30 -18 -69 -54 -117l-104 -138h163v-53h-261z" />
    <glyph glyph-name="uni2083" unicode="&#x2083;" horiz-adv-x="338" 
d="M288 -95c0 -19.333 -3.66406 -36.8359 -10.9971 -52.5029s-17.5 -29 -30.5 -40s-28.5 -19.5 -46.5 -25.5s-37.333 -9 -58 -9s-41 1.83301 -61 5.5s-37 9.16699 -51 16.5l18 44c10.667 -5.33301 23.667 -9.66602 39 -12.999s30 -5 44 -5c27.333 0 48.833 7 64.5 21
s23.5 33.667 23.5 59c0 14.667 -2.83301 27 -8.5 37s-13.334 18.167 -23.001 24.5s-20.834 11 -33.501 14s-26.334 4.5 -41.001 4.5h-12v37c31.333 2.66699 56.5 10.667 75.5 24s28.5 31 28.5 53c0 20.667 -6.66699 35.334 -20 44.001s-29.666 13 -48.999 13
c-28 0 -54.333 -5.33301 -79 -16l-17 41c31.333 14.667 66.666 22 105.999 22c36 0 65.833 -8.16699 89.5 -24.5s35.5 -39.833 35.5 -70.5c0 -12.667 -2.33301 -24 -7 -34s-10.5 -18.667 -17.5 -26s-15 -13.666 -24 -18.999s-17.833 -9.66602 -26.5 -12.999v-2
c10.667 -3.33301 21.5 -7.66602 32.5 -12.999s21 -12.333 30 -21s16.167 -19.334 21.5 -32.001s8 -27.334 8 -44.001z" />
    <glyph glyph-name="uni2084" unicode="&#x2084;" horiz-adv-x="338" 
d="M267 -124v-91h-61v91h-172v40l170 281h63v-282h35v-39h-35zM207 136c-8 -19.333 -17.667 -38.668 -29 -58.001l-96 -163h125v159c0 11.333 0.166992 21.833 0.5 31.5s0.833008 19.834 1.5 30.501h-2z" />
    <glyph glyph-name="uni2085" unicode="&#x2085;" horiz-adv-x="338" 
d="M288 -96c0 -17.333 -3.50098 -33.668 -10.501 -49.001s-17 -28.666 -30 -39.999s-28.333 -20.333 -46 -27s-37.5 -10 -59.5 -10c-20.667 0 -41 1.66699 -61 5s-37 8.66602 -51 15.999l19 45c10.667 -5.33301 23.334 -9.66602 38.001 -12.999s29.667 -5 45 -5
c27.333 0 48.666 7.83301 63.999 23.5s23 34.167 23 55.5c0 25.333 -8.16699 46 -24.5 62s-43.5 24 -81.5 24c-9.33301 0 -19.166 -0.5 -29.499 -1.5s-20.833 -2.16699 -31.5 -3.5l24 211h199v-52h-152l-14 -117c4 0.666992 8 1.16699 12 1.5s10 0.5 18 0.5
c48.667 0 85.667 -11.5 111 -34.5s38 -53.5 38 -91.5z" />
    <glyph glyph-name="uni2086" unicode="&#x2086;" horiz-adv-x="338" 
d="M304 -92c0 -17.333 -2.66895 -33.834 -8.00195 -49.501s-13.5 -29.5 -24.5 -41.5s-24.667 -21.5 -41 -28.5s-35.833 -10.5 -58.5 -10.5c-44 0 -77.5 14 -100.5 42s-34.5 66.333 -34.5 115c0 36.667 5.83301 69.834 17.5 99.501s27.5 55.834 47.5 78.501
s43.333 41.667 70 57s55.334 26.666 86.001 33.999l14 -44c-37.333 -11.333 -69.166 -27.5 -95.499 -48.5s-47.166 -50.5 -62.499 -88.5c8 3.33301 16.667 5.83301 26 7.5s18.666 2.5 27.999 2.5c42 0 75.167 -10.833 99.5 -32.5s36.5 -52.5 36.5 -92.5zM240.998 -92.001
c0 59.333 -28.667 89.001 -86 89.001c-18 0 -35 -3 -51 -9c-2 -10 -3.16699 -18.833 -3.5 -26.5s-0.5 -17.167 -0.5 -28.5c0 -35.333 5.83301 -62.833 17.5 -82.5s30.167 -29.5 55.5 -29.5c24 0 41.333 8.66699 52 26s16 37.666 16 60.999z" />
    <glyph glyph-name="uni2087" unicode="&#x2087;" horiz-adv-x="338" 
d="M251 69c-12 -27.333 -23.333 -54.667 -34 -82l-30 -78.5c-9.33301 -25 -17.333 -48.167 -24 -69.5s-12 -39.333 -16 -54h-81l161 359h-190v53h270z" />
    <glyph glyph-name="uni2088" unicode="&#x2088;" horiz-adv-x="338" 
d="M304 -117c0 -32 -12.835 -57.5 -38.502 -76.5s-57.834 -28.5 -96.501 -28.5c-18 0 -35.167 2.33301 -51.5 7s-30.666 11.334 -42.999 20.001s-22.166 19.5 -29.499 32.5s-11 28.167 -11 45.5c0 15.333 2.5 28.833 7.5 40.5s11.833 22 20.5 31s18.5 17.167 29.5 24.5
s22.5 14.333 34.5 21c-21.333 12.667 -39.833 26.667 -55.5 42s-23.5 36.333 -23.5 63c0 30 11.833 54 35.5 72s52.5 27 86.5 27s62.833 -9 86.5 -27s35.5 -42 35.5 -72c0 -26 -7.66699 -46.667 -23 -62s-33.666 -29 -54.999 -41c12 -6.66699 23.5 -13.834 34.5 -21.501
s20.667 -16.167 29 -25.5s15 -19.833 20 -31.5s7.5 -25.167 7.5 -40.5zM235.998 105c0 18.667 -6.16699 33.5 -18.5 44.5s-28.166 16.5 -47.499 16.5s-35 -5.5 -47 -16.5s-18 -25.833 -18 -44.5c0 -19.333 6.16699 -34.833 18.5 -46.5s28.166 -23.167 47.499 -34.5
c19.333 11.333 35 22.833 47 34.5s18 27.167 18 46.5zM241.998 -116c0 23.333 -7 41.832 -21 55.499s-31.667 26.5 -53 38.5c-21.333 -12 -39 -24.667 -53 -38s-21 -31.666 -21 -54.999c0 -20 7.33301 -35.833 22 -47.5s32 -17.5 52 -17.5c21.333 0 39 5.83301 53 17.5
s21 27.167 21 46.5z" />
    <glyph glyph-name="uni2089" unicode="&#x2089;" horiz-adv-x="338" 
d="M301 47c0 -36.667 -5.66797 -69.834 -17.001 -99.501s-27 -55.834 -47 -78.501s-43.333 -41.667 -70 -57s-55.334 -26.666 -86.001 -33.999l-15 44c36.667 11.333 68.5 27.5 95.5 48.5s48.167 50.5 63.5 88.5c-8 -3.33301 -16.667 -5.83301 -26 -7.5
s-18.666 -2.5 -27.999 -2.5c-42 0 -75.333 10.833 -100 32.5s-37 52.5 -37 92.5c0 16.667 2.66699 32.834 8 48.501s13.5 29.5 24.5 41.5s24.833 21.667 41.5 29s36.334 11 59.001 11c44 0 77.333 -14 100 -42s34 -66.333 34 -115zM238.999 50
c0 35.333 -5.83301 63 -17.5 83s-30.167 30 -55.5 30c-24 0 -41.333 -8.83301 -52 -26.5s-16 -38.167 -16 -61.5c0 -59.333 28.333 -89 85 -89c18 0 35 3 51 9c2 10 3.33301 18.833 4 26.5s1 17.167 1 28.5z" />
    <glyph glyph-name="uni208A" unicode="&#x208a;" horiz-adv-x="354" 
d="M203 -30v-99h-52v99h-98v48h98v98h52v-98h98v-48h-98z" />
    <glyph glyph-name="uni208B" unicode="&#x208b;" horiz-adv-x="354" 
d="M53 -30v48h248v-48h-248z" />
    <glyph glyph-name="uni208C" unicode="&#x208c;" horiz-adv-x="354" 
d="M53 29v48h248v-48h-248zM53 -90v49h248v-49h-248z" />
    <glyph glyph-name="uni208D" unicode="&#x208d;" horiz-adv-x="216" 
d="M166 -306c-41.333 40.667 -73 85.832 -95 135.499s-33 103.5 -33 161.5s11 111.833 33 161.5s53.667 94.834 95 135.501l34 -25c-30.667 -38 -54.167 -80.333 -70.5 -127s-24.5 -95 -24.5 -145s8.16699 -98.333 24.5 -145s39.833 -89 70.5 -127z" />
    <glyph glyph-name="uni208E" unicode="&#x208e;" horiz-adv-x="216" 
d="M178 -9c0 -58 -11 -111.831 -33 -161.498s-53.667 -94.834 -95 -135.501l-34 25c30.667 38 54.167 80.333 70.5 127s24.5 95 24.5 145s-8.16699 98.333 -24.5 145s-39.833 89 -70.5 127l34 25c41.333 -40.667 73 -85.834 95 -135.501s33 -103.5 33 -161.5z" />
    <glyph glyph-name="Euro" unicode="&#x20ac;" 
d="M494 28c-11.333 -9.33301 -27.334 -17.999 -48.001 -25.999s-46 -12 -76 -12c-38 0 -70.667 7.5 -98 22.5s-50.333 34.667 -69 59s-33.5 52.166 -44.5 83.499s-18.833 63.333 -23.5 96h-85v44h80c-0.666992 6.66699 -1.16699 14.167 -1.5 22.5s-0.5 17.166 -0.5 26.499
c0 10.667 0.333008 21.5 1 32.5s1.66699 22.167 3 33.5h-82v44h88c6 30.667 14.667 60.667 26 90s26.333 55.5 45 78.5s41.167 41.333 67.5 55s57.5 20.5 93.5 20.5c32 0 57.833 -4 77.5 -12s35.167 -16.333 46.5 -25l-22 -54c-8 5.33301 -19.667 11.333 -35 18
s-33.666 10 -54.999 10c-25.333 0 -47 -5 -65 -15s-33.167 -23.5 -45.5 -40.5s-22.166 -36.333 -29.499 -58s-13 -44.167 -17 -67.5h195v-44h-200c-2 -23.333 -3 -45.333 -3 -66c0 -7.33301 0.166992 -15.166 0.5 -23.499s0.833008 -16.833 1.5 -25.5h201v-44h-197
c3.33301 -24 8.5 -47.667 15.5 -71s16.667 -44.166 29 -62.499s27.666 -33 45.999 -44s40.833 -16.5 67.5 -16.5c20.667 0 38 2.66699 52 8s26.667 11.666 38 18.999z" />
    <glyph glyph-name="uni20B4" unicode="&#x20b4;" 
d="M205 251c-7.33301 -11.333 -13.167 -23.832 -17.5 -37.499s-6.5 -29.167 -6.5 -46.5c0 -15.333 3 -29.666 9 -42.999s14.333 -25 25 -35s23 -18 37 -24s29 -9 45 -9c19.333 0 38.666 2.5 57.999 7.5s37 12.833 53 23.5l25 -59c-18 -12.667 -39.5 -22.167 -64.5 -28.5
s-51.167 -9.5 -78.5 -9.5s-52.666 4.33301 -75.999 13s-43.666 20.667 -60.999 36s-31 34 -41 56s-15 46 -15 72c0 31.333 5.33301 59.333 16 84h-65v44h91c10 12.667 21.167 24 33.5 34s25 19.5 38 28.5l39 26c13 8.33301 25.167 17.166 36.5 26.499h-238v44h279
c13.333 20.667 20 45.667 20 75c0 33.333 -10.333 59.333 -31 78s-48 28 -82 28c-18.667 0 -37.667 -2.83301 -57 -8.5s-36.333 -13.167 -51 -22.5l-24 56c18 11.333 39 20.5 63 27.5s49 10.5 75 10.5c28 0 53.5 -3.83301 76.5 -11.5s42.667 -18.834 59 -33.501
s29.166 -32.334 38.499 -53.001s14 -44 14 -70c0 -30 -4 -55.333 -12 -76h64v-44h-89c-9.33301 -12.667 -20 -24 -32 -34s-24.333 -19.5 -37 -28.5s-25.5 -17.667 -38.5 -26s-25.167 -17.166 -36.5 -26.499h233v-44h-275z" />
    <glyph glyph-name="afii61289" unicode="&#x2113;" horiz-adv-x="293" 
d="M260 4c-14 -6 -31.667 -9 -53 -9c-38.667 0 -70 11.5 -94 34.5s-36 56.833 -36 101.5v654h88v-654c0 -24 5.66699 -42.5 17 -55.5s28 -19.5 50 -19.5c10.667 0 20 1.33301 28 4v-56z" />
    <glyph glyph-name="afii61352" unicode="&#x2116;" horiz-adv-x="972" 
d="M920 328c0 -25.333 -2.83301 -49.333 -8.5 -72s-14.5 -42.834 -26.5 -60.501s-27.333 -31.667 -46 -42s-40.667 -15.5 -66 -15.5s-47.333 5.16699 -66 15.5s-34 24.333 -46 42s-20.833 37.834 -26.5 60.501s-8.5 46.667 -8.5 72c0 24.667 2.83301 48.5 8.5 71.5
s14.5 43.333 26.5 61s27.333 31.667 46 42s40.667 15.5 66 15.5s47.333 -5.16699 66 -15.5s34 -24.333 46 -42s20.833 -38 26.5 -61s8.5 -46.833 8.5 -71.5zM636 0v54h274v-54h-274zM460 0l-273 512c-7.33301 13.333 -13.5 25.833 -18.5 37.5l-15.5 37.5h-2
c1.33301 -14 2.16602 -27.833 2.49902 -41.5s0.5 -28.167 0.5 -43.5v-502h-77v688h96l259 -488c6 -11.333 11.5 -23 16.5 -35l15.5 -38h2c-1.33301 14.667 -2.16602 28.5 -2.49902 41.5s-0.5 26.5 -0.5 40.5v479h77v-688h-80zM854 329c0 18 -1.16699 35.667 -3.5 53
s-6.66602 32.666 -12.999 45.999s-14.666 24 -24.999 32s-23.5 12 -39.5 12s-29.167 -4 -39.5 -12s-18.666 -18.667 -24.999 -32s-10.666 -28.666 -12.999 -45.999s-3.5 -35 -3.5 -53s1.16699 -35.667 3.5 -53s6.66602 -32.666 12.999 -45.999s14.666 -24 24.999 -32
s23.5 -12 39.5 -12s29.167 4 39.5 12s18.666 18.667 24.999 32s10.666 28.666 12.999 45.999s3.5 35 3.5 53z" />
    <glyph glyph-name="uni2117" unicode="&#x2117;" horiz-adv-x="822" 
d="M767 344c0 -49.333 -9.33301 -95.5 -28 -138.5s-44.167 -80.5 -76.5 -112.5s-70.166 -57.333 -113.499 -76s-89.333 -28 -138 -28c-49.333 0 -95.5 9.33301 -138.5 28s-80.667 44 -113 76s-57.833 69.5 -76.5 112.5s-28 89.167 -28 138.5c0 48.667 9.33301 94.667 28 138
s44.167 81 76.5 113s70 57.333 113 76s89.167 28 138.5 28c48.667 0 94.667 -9.33301 138 -28s81.166 -44 113.499 -76s57.833 -69.667 76.5 -113s28 -89.333 28 -138zM707 345c0 42 -7.66699 81.5 -23 118.5s-36.333 69.333 -63 97s-58 49.667 -94 66
s-74.667 24.5 -116 24.5s-80 -8.16699 -116 -24.5s-67.333 -38.333 -94 -66s-47.667 -60 -63 -97s-23 -76.5 -23 -118.5s7.66699 -81.5 23 -118.5s36.333 -69.333 63 -97s58 -49.667 94 -66s74.667 -24.5 116 -24.5s80 8.16699 116 24.5s67.333 38.333 94 66
s47.667 60 63 97s23 76.5 23 118.5zM554 430c0 -16 -2.66699 -31.332 -8 -45.999s-13.5 -27.5 -24.5 -38.5s-25.167 -19.833 -42.5 -26.5s-38 -10 -62 -10c-9.33301 0 -17.833 0.166992 -25.5 0.5s-14.167 1.16602 -19.5 2.49902v-167h-60v384
c13.333 7.33301 29.333 12.833 48 16.5s37 5.5 55 5.5c48.667 0 84 -11.333 106 -34s33 -51.667 33 -87zM495 431.001c0 28 -6.33301 49.001 -19 63.001s-33.667 21 -63 21c-8 0 -15.667 -0.833008 -23 -2.5s-13.333 -3.16699 -18 -4.5v-160
c4.66699 -0.666992 10 -1.33398 16 -2.00098s12.667 -1 20 -1c32 0 54.5 8 67.5 24s19.5 36.667 19.5 62z" />
    <glyph glyph-name="trademark" unicode="&#x2122;" horiz-adv-x="768" 
d="M658 288l-29.002 286.001c0 2 -0.166992 5.16699 -0.5 9.5s-0.666016 9 -0.999023 14s-0.666016 9.66699 -0.999023 14s-0.5 7.16602 -0.5 8.49902h-2c-1.33301 -8 -2.83301 -15.667 -4.5 -23s-3.83398 -15 -6.50098 -23l-86 -286h-42l-86 286
c-2 6 -4.16699 13.833 -6.5 23.5l-5.5 22.5h-2c0 -5.33301 -0.166992 -13.333 -0.5 -24s-0.833008 -18 -1.5 -22l-31 -286h-55l49 400h69l82 -273c2 -6.66699 4.16699 -15.667 6.5 -27s3.83301 -19 4.5 -23h2l3.5 22c1.66699 10.667 3.83398 20 6.50098 28l82 273h69
l49 -400h-62zM183.998 643.001v-355h-65v355h-89v45h244v-45h-90z" />
    <glyph glyph-name="Omega" unicode="&#x2126;" horiz-adv-x="616" 
d="M346 0v61c40 46 70.5 96.333 91.5 151s31.5 112.334 31.5 173.001c0 30.667 -3.16699 60.834 -9.5 90.501s-16 56.334 -29 80.001s-29.667 42.834 -50 57.501s-44.5 22 -72.5 22s-52.167 -7.33301 -72.5 -22s-37 -33.834 -50 -57.501s-22.667 -50.334 -29 -80.001
s-9.5 -59.834 -9.5 -90.501c0 -60.667 10.5 -118.334 31.5 -173.001s51.5 -105 91.5 -151v-61h-217v62h139c-42 46 -75.5 96.5 -100.5 151.5s-37.5 113.5 -37.5 175.5c0 40 5.33301 78.667 16 116s26.5 70.166 47.5 98.499s47.5 51.166 79.5 68.499s69 26 111 26
s79 -8.66699 111 -26s58.5 -40.166 79.5 -68.499s36.833 -61.166 47.5 -98.499s16 -76 16 -116c0 -62 -12.5 -120.5 -37.5 -175.5s-58.5 -105.5 -100.5 -151.5h139v-62h-217z" />
    <glyph glyph-name="estimated" unicode="&#x212e;" horiz-adv-x="878" 
d="M205 330c2 -53.333 10.665 -98.835 25.998 -136.502s35.166 -68.5 59.499 -92.5s51.833 -41.5 82.5 -52.5s62.667 -16.5 96 -16.5c28.667 0 57.334 3.83301 86.001 11.5s55.667 18.5 81 32.5s48.5 31 69.5 51s38.167 42.667 51.5 68l36 -23
c-14.667 -26 -33.167 -50.333 -55.5 -73s-48.166 -42.167 -77.499 -58.5s-62.5 -29.166 -99.5 -38.499s-77.5 -14 -121.5 -14c-66.667 0 -124.834 10.167 -174.501 30.5s-91.167 47.333 -124.5 81s-58.333 71.834 -75 114.501s-25 86 -25 130s8.33301 87.333 25 130
s41.667 80.834 75 114.501s74.833 60.667 124.5 81s107.834 30.5 174.501 30.5s124.834 -10.167 174.501 -30.5s91.167 -47.333 124.5 -81s58.333 -71.834 75 -114.501s25 -86 25 -130v-14h-633zM671.998 370.998c-2.66699 48.667 -11.1689 91.167 -25.502 127.5
s-32.166 66.666 -53.499 90.999s-45.333 42.5 -72 54.5s-54 18 -82 18s-55.333 -6 -82 -18s-50.667 -30.167 -72 -54.5s-39.166 -54.666 -53.499 -90.999s-22.833 -78.833 -25.5 -127.5h466z" />
    <glyph glyph-name="uni2150" unicode="&#x2150;" horiz-adv-x="806" 
d="M708 284c-12 -27.333 -23.333 -54.833 -34 -82.5l-30 -79c-9.33301 -25 -17.333 -48 -24 -69s-12 -38.833 -16 -53.5h-80l160 359h-182v53h262zM241 -12l-49 23l315 689l49 -23zM169 276v336.002c-12 -6.66699 -28 -12.334 -48 -17.001s-38.667 -7.66699 -56 -9l-9 39
c30 4 57 11.167 81 21.5s41.667 24.166 53 41.499h48v-412h-69z" />
    <glyph glyph-name="uni2151" unicode="&#x2151;" horiz-adv-x="806" 
d="M758 262c0 -36.667 -5.66504 -69.833 -16.998 -99.5s-27 -55.834 -47 -78.501s-43.333 -41.667 -70 -57s-55.334 -26.666 -86.001 -33.999l-15 44c36.667 11.333 68.5 27.5 95.5 48.5s48.167 50.5 63.5 88.5c-8 -3.33301 -16.667 -5.83301 -26 -7.5
s-18.666 -2.5 -27.999 -2.5c-42 0 -75.333 10.833 -100 32.5s-37 52.5 -37 92.5c0 18 3 34.833 9 50.5s14.667 29.5 26 41.5s25.166 21.333 41.499 28s35.166 10 56.499 10c44 0 77.333 -14 100 -42s34 -66.333 34 -115zM248.002 -11.999l-49 23l315 689l49 -23z
M169.002 276.001v336.002c-12 -6.66699 -28 -12.334 -48 -17.001s-38.667 -7.66699 -56 -9l-9 39c30 4 57 11.167 81 21.5s41.667 24.166 53 41.499h48v-412h-69zM696.002 265.003c0 35.333 -5.83301 63 -17.5 83s-30.167 30 -55.5 30c-24 0 -41.333 -8.83301 -52 -26.5
s-16 -38.167 -16 -61.5c0 -59.333 28.333 -89 85 -89c18 0 35 3 51 9c2 10 3.33301 18.833 4 26.5s1 17.167 1 28.5z" />
    <glyph glyph-name="uni2152" unicode="&#x2152;" horiz-adv-x="1090" 
d="M1042 206c0 -26.667 -2.33301 -52.834 -7 -78.501s-12.334 -48.5 -23.001 -68.5s-24.5 -36 -41.5 -48s-37.833 -18 -62.5 -18s-45.5 6 -62.5 18s-30.833 28 -41.5 48s-18.334 42.833 -23.001 68.5s-7 51.834 -7 78.501s2.33301 52.834 7 78.501s12.334 48.5 23.001 68.5
s24.5 36 41.5 48s37.833 18 62.5 18s45.5 -6 62.5 -18s30.833 -28 41.5 -48s18.334 -42.833 23.001 -68.5s7 -51.834 7 -78.501zM607 0l-0.000976562 336.002c-12 -6.66699 -28.167 -12.334 -48.5 -17.001s-39.166 -7.66699 -56.499 -9l-9 39c30 4 57 11.167 81 21.5
s41.667 24.166 53 41.499h48v-412h-68zM248.999 -11.998l-49 23l315 689l49 -23zM168.999 276.002v336.002c-12 -6.66699 -28 -12.334 -48 -17.001s-38.667 -7.66699 -56 -9l-9 39c30 4 57 11.167 81 21.5s41.667 24.166 53 41.499h48v-412h-69zM976.999 207.004
c0 20.667 -1 41.167 -3 61.5s-5.5 38.5 -10.5 54.5s-12 29 -21 39s-20.5 15 -34.5 15s-25.5 -5 -34.5 -15s-16 -23 -21 -39s-8.5 -34.167 -10.5 -54.5s-3 -40.833 -3 -61.5c0 -21.333 1 -42 3 -62s5.5 -38 10.5 -54s12 -28.833 21 -38.5s20.5 -14.5 34.5 -14.5
s25.5 4.83301 34.5 14.5s16 22.5 21 38.5s8.5 34 10.5 54s3 40.667 3 62z" />
    <glyph glyph-name="onethird" unicode="&#x2153;" horiz-adv-x="806" 
d="M756 120c0 -19.333 -3.66504 -36.8359 -10.998 -52.5029s-17.666 -29 -30.999 -40s-29 -19.5 -47 -25.5s-37.333 -9 -58 -9s-40.834 1.83301 -60.501 5.5s-36.5 9.16699 -50.5 16.5l17 44c10.667 -5.33301 23.834 -9.66602 39.501 -12.999s30.5 -5 44.5 -5
c27.333 0 48.666 7 63.999 21s23 33.667 23 59c0 14.667 -2.83301 27 -8.5 37s-13.167 18.167 -22.5 24.5s-20.333 11 -33 14s-26.334 4.5 -41.001 4.5h-12v37c31.333 2.66699 56.333 10.667 75 24s28 31 28 53c0 20.667 -6.5 35.334 -19.5 44.001s-29.167 13 -48.5 13
c-28 0 -54.333 -5.33301 -79 -16l-17 41c31.333 14.667 66.666 22 105.999 22c36 0 65.667 -8.16699 89 -24.5s35 -39.833 35 -70.5c0 -12.667 -2.16699 -24 -6.5 -34s-10 -18.667 -17 -26s-15 -13.666 -24 -18.999s-17.833 -9.66602 -26.5 -12.999v-2
c10.667 -3.33301 21.5 -7.66602 32.5 -12.999s21 -12.333 30 -21s16.167 -19.334 21.5 -32.001s8 -27.334 8 -44.001zM247.002 -12.0029l-49 23l315 689l49 -23zM169.002 275.997v336.002c-12 -6.66699 -28 -12.334 -48 -17.001s-38.667 -7.66699 -56 -9l-9 39
c30 4 57 11.167 81 21.5s41.667 24.166 53 41.499h48v-412h-69z" />
    <glyph glyph-name="twothirds" unicode="&#x2154;" horiz-adv-x="806" 
d="M756 120c0 -19.333 -3.66602 -36.8359 -10.999 -52.5029s-17.666 -29 -30.999 -40s-29 -19.5 -47 -25.5s-37.333 -9 -58 -9s-40.834 1.83301 -60.501 5.5s-36.5 9.16699 -50.5 16.5l17 44c10.667 -5.33301 23.834 -9.66602 39.501 -12.999s30.5 -5 44.5 -5
c27.333 0 48.666 7 63.999 21s23 33.667 23 59c0 14.667 -2.83301 27 -8.5 37s-13.167 18.167 -22.5 24.5s-20.333 11 -33 14s-26.334 4.5 -41.001 4.5h-12v37c31.333 2.66699 56.333 10.667 75 24s28 31 28 53c0 20.667 -6.5 35.334 -19.5 44.001s-29.167 13 -48.5 13
c-27.333 0 -53.333 -5.33301 -78 -16l-17 41c31.333 14.667 66.333 22 105 22c36 0 65.667 -8.16699 89 -24.5s35 -39.833 35 -70.5c0 -12.667 -2.16699 -24 -6.5 -34s-10 -18.667 -17 -26s-15 -13.666 -24 -18.999s-17.833 -9.66602 -26.5 -12.999v-2
c10.667 -3.33301 21.5 -7.66602 32.5 -12.999s21 -12.333 30 -21s16.167 -19.334 21.5 -32.001s8 -27.334 8 -44.001zM268.001 -12.0029l-49 23l315 689l49 -23zM20.001 275.997l151 214c13.333 19.333 22.333 35.666 27 48.999s7 26.333 7 39c0 46 -26.667 69 -80 69
c-13.333 0 -26.833 -1.5 -40.5 -4.5s-25.5 -7.16699 -35.5 -12.5l-17 42c14.667 7.33301 31.167 13 49.5 17s37.5 6 57.5 6c47.333 0 81.833 -10.167 103.5 -30.5s32.5 -47.166 32.5 -80.499c0 -15.333 -4.16699 -32.5 -12.5 -51.5s-21.833 -40.833 -40.5 -65.5l-105 -138
h163v-53h-260z" />
    <glyph glyph-name="uni2155" unicode="&#x2155;" horiz-adv-x="806" 
d="M756 119c0 -17.333 -3.49902 -33.668 -10.499 -49.001s-17 -28.666 -30 -39.999s-28.5 -20.333 -46.5 -27s-38 -10 -60 -10c-20.667 0 -40.834 1.66699 -60.501 5s-36.5 8.66602 -50.5 15.999l18 45c10.667 -5.33301 23.5 -9.66602 38.5 -12.999s30.167 -5 45.5 -5
c27.333 0 48.5 7.83301 63.5 23.5s22.5 34.167 22.5 55.5c0 25.333 -8.16699 46 -24.5 62s-43.5 24 -81.5 24c-9.33301 0 -19 -0.5 -29 -1.5s-20.333 -2.16699 -31 -3.5l24 211h198v-52h-152l-13 -117c3.33301 0.666992 7.83301 1.16699 13.5 1.5s11.167 0.5 16.5 0.5
c48.667 0 85.667 -11.5 111 -34.5s38 -53.5 38 -91.5zM257.001 -12.002l-49 23l315 689l49 -23zM169.001 275.998v336.002c-12 -6.66699 -28 -12.334 -48 -17.001s-38.667 -7.66699 -56 -9l-9 39c30 4 57 11.167 81 21.5s41.667 24.166 53 41.499h48v-412h-69z" />
    <glyph glyph-name="uni2156" unicode="&#x2156;" horiz-adv-x="806" 
d="M756 119c0 -17.333 -3.49902 -33.668 -10.499 -49.001s-17 -28.666 -30 -39.999s-28.5 -20.333 -46.5 -27s-38 -10 -60 -10c-20.667 0 -40.834 1.66699 -60.501 5s-36.5 8.66602 -50.5 15.999l18 45c10.667 -5.33301 23.5 -9.66602 38.5 -12.999s30.167 -5 45.5 -5
c27.333 0 48.5 7.83301 63.5 23.5s22.5 34.167 22.5 55.5c0 25.333 -8.16699 46 -24.5 62s-43.5 24 -81.5 24c-9.33301 0 -19 -0.5 -29 -1.5s-20.333 -2.16699 -31 -3.5l24 211h198v-52h-152l-13 -117c3.33301 0.666992 7.83301 1.16699 13.5 1.5s11.167 0.5 16.5 0.5
c48.667 0 85.667 -11.5 111 -34.5s38 -53.5 38 -91.5zM278.001 -12.002l-49 23l314 689l49 -23zM20.001 275.998l151.999 214c13.333 19.333 22.333 35.666 27 48.999s7 26.333 7 39c0 46 -26.667 69 -80 69c-13.333 0 -27 -1.5 -41 -4.5s-26 -7.16699 -36 -12.5l-17 42
c14.667 7.33301 31.334 13 50.001 17s38 6 58 6c47.333 0 81.833 -10.167 103.5 -30.5s32.5 -47.166 32.5 -80.499c0 -30 -18 -69 -54 -117l-105 -138h163v-53h-260z" />
    <glyph glyph-name="uni2157" unicode="&#x2157;" horiz-adv-x="806" 
d="M756 119c0 -17.333 -3.49902 -33.668 -10.499 -49.001s-17 -28.666 -30 -39.999s-28.5 -20.333 -46.5 -27s-38 -10 -60 -10c-20.667 0 -40.834 1.66699 -60.501 5s-36.5 8.66602 -50.5 15.999l18 45c10.667 -5.33301 23.5 -9.66602 38.5 -12.999s30.167 -5 45.5 -5
c27.333 0 48.5 7.83301 63.5 23.5s22.5 34.167 22.5 55.5c0 25.333 -8.16699 46 -24.5 62s-43.5 24 -81.5 24c-9.33301 0 -19 -0.5 -29 -1.5s-20.333 -2.16699 -31 -3.5l24 211h198v-52h-152l-13 -117c3.33301 0.666992 7.83301 1.16699 13.5 1.5s11.167 0.5 16.5 0.5
c48.667 0 85.667 -11.5 111 -34.5s38 -53.5 38 -91.5zM263.001 -12.002l-49 23l315 689l49 -23zM288.001 395.998c0 -19.333 -3.66406 -36.8359 -10.9971 -52.5029s-17.5 -29 -30.5 -40s-28.5 -19.5 -46.5 -25.5s-37.333 -9 -58 -9s-41 1.83301 -61 5.5
s-37 9.16699 -51 16.5l18 44c10.667 -5.33301 23.667 -9.66602 39 -12.999s30 -5 44 -5c27.333 0 48.833 7 64.5 21s23.5 33.667 23.5 59c0 14.667 -2.83301 27 -8.5 37s-13.334 18.167 -23.001 24.5s-20.834 11 -33.501 14s-26.334 4.5 -41.001 4.5h-12v37
c31.333 2.66699 56.5 10.667 75.5 24s28.5 31 28.5 53c0 20.667 -6.66699 35.334 -20 44.001s-29.666 13 -48.999 13c-28 0 -54.333 -5.33301 -79 -16l-17 41c31.333 14.667 66.666 22 105.999 22c36 0 65.833 -8.16699 89.5 -24.5s35.5 -39.833 35.5 -70.5
c0 -12.667 -2.33301 -24 -7 -34s-10.5 -18.667 -17.5 -26s-15 -13.666 -24 -18.999s-17.833 -9.66602 -26.5 -12.999v-2c10.667 -3.33301 21.5 -7.66602 32.5 -12.999s21 -12.333 30 -21s16.167 -19.334 21.5 -32.001s8 -27.334 8 -44.001z" />
    <glyph glyph-name="uni2158" unicode="&#x2158;" horiz-adv-x="806" 
d="M756 119c0 -17.333 -3.49902 -33.668 -10.499 -49.001s-17 -28.666 -30 -39.999s-28.5 -20.333 -46.5 -27s-38 -10 -60 -10c-20.667 0 -40.834 1.66699 -60.501 5s-36.5 8.66602 -50.5 15.999l18 45c10.667 -5.33301 23.5 -9.66602 38.5 -12.999s30.167 -5 45.5 -5
c27.333 0 48.5 7.83301 63.5 23.5s22.5 34.167 22.5 55.5c0 25.333 -8.16699 46 -24.5 62s-43.5 24 -81.5 24c-9.33301 0 -19 -0.5 -29 -1.5s-20.333 -2.16699 -31 -3.5l24 211h198v-52h-152l-13 -117c3.33301 0.666992 7.83301 1.16699 13.5 1.5s11.167 0.5 16.5 0.5
c48.667 0 85.667 -11.5 111 -34.5s38 -53.5 38 -91.5zM274.001 -12.002l-49 23l314 689l49 -23zM267.001 366.998v-91h-61v91h-172v40l170 281h63v-282h35v-39h-35zM207.001 626.998c-1.33301 -3.33301 -4.83203 -11.168 -10.499 -23.501s-11.834 -23.833 -18.501 -34.5
l-96 -163h125v159c0 12.667 0.166992 24.834 0.5 36.501s0.833008 20.167 1.5 25.5h-2z" />
    <glyph glyph-name="uni2159" unicode="&#x2159;" horiz-adv-x="806" 
d="M756 123c0 -17.333 -2.66602 -33.834 -7.99902 -49.501s-13.5 -29.5 -24.5 -41.5s-24.833 -21.5 -41.5 -28.5s-36.334 -10.5 -59.001 -10.5c-44 0 -77.5 14 -100.5 42s-34.5 66.333 -34.5 115c0 36.667 5.83301 69.834 17.5 99.501s27.5 55.834 47.5 78.501
s43.333 41.667 70 57s55.334 26.666 86.001 33.999l15 -44c-37.333 -11.333 -69.333 -27.5 -96 -48.5s-47.667 -50.5 -63 -88.5c8 3.33301 16.667 5.83301 26 7.5s18.666 2.5 27.999 2.5c42 0 75.333 -10.833 100 -32.5s37 -52.5 37 -92.5zM266.001 -12.001l-49 23l314 689
l49 -23zM169.001 275.999v336.002c-12 -6.66699 -28 -12.334 -48 -17.001s-38.667 -7.66699 -56 -9l-9 39c30 4 57 11.167 81 21.5s41.667 24.166 53 41.499h48v-412h-69zM692.001 123.001c0 59.333 -28.667 89.001 -86 89.001c-17.333 0 -34 -3 -50 -9
c-2 -10 -3.33301 -18.833 -4 -26.5s-1 -17.167 -1 -28.5c0 -35.333 5.83301 -62.833 17.5 -82.5s30.167 -29.5 55.5 -29.5c24 0 41.333 8.66699 52 26s16 37.666 16 60.999z" />
    <glyph glyph-name="uni215A" unicode="&#x215a;" horiz-adv-x="806" 
d="M756 123c0 -17.333 -2.66602 -33.834 -7.99902 -49.501s-13.5 -29.5 -24.5 -41.5s-24.833 -21.5 -41.5 -28.5s-36.334 -10.5 -59.001 -10.5c-44 0 -77.5 14 -100.5 42s-34.5 66.333 -34.5 115c0 36.667 5.83301 69.834 17.5 99.501s27.5 55.834 47.5 78.501
s43.333 41.667 70 57s55.334 26.666 86.001 33.999l15 -44c-37.333 -11.333 -69.333 -27.5 -96 -48.5s-47.667 -50.5 -63 -88.5c8 3.33301 16.667 5.83301 26 7.5s18.666 2.5 27.999 2.5c42 0 75.333 -10.833 100 -32.5s37 -52.5 37 -92.5zM278.001 -12.001l-49 23l314 689
l49 -23zM289.001 394.999c0 -17.333 -3.49805 -33.668 -10.498 -49.001s-17 -28.666 -30 -39.999s-28.5 -20.333 -46.5 -27s-38 -10 -60 -10c-20.667 0 -40.834 1.66699 -60.501 5s-36.5 8.66602 -50.5 15.999l18 45c10.667 -5.33301 23.334 -9.66602 38.001 -12.999
s29.667 -5 45 -5c27.333 0 48.666 7.83301 63.999 23.5s23 34.167 23 55.5c0 25.333 -8.16699 46 -24.5 62s-43.5 24 -81.5 24c-9.33301 0 -19 -0.5 -29 -1.5s-20.333 -2.16699 -31 -3.5l23 211h199v-52h-152l-13 -117c3.33301 0.666992 7.66602 1.16699 12.999 1.5
s10.666 0.5 15.999 0.5c48.667 0 85.834 -11.5 111.501 -34.5s38.5 -53.5 38.5 -91.5zM692.003 122.997c0 59.333 -28.667 89.001 -86 89.001c-17.333 0 -34 -3 -50 -9c-2 -10 -3.33301 -18.833 -4 -26.5s-1 -17.167 -1 -28.5c0 -35.333 5.83301 -62.833 17.5 -82.5
s30.167 -29.5 55.5 -29.5c24 0 41.333 8.66699 52 26s16 37.666 16 60.999z" />
    <glyph glyph-name="oneeighth" unicode="&#x215b;" horiz-adv-x="806" 
d="M757 98c0 -32 -12.6699 -57.5 -38.0029 -76.5s-57.333 -28.5 -96 -28.5c-18 0 -35.167 2.33301 -51.5 7s-30.666 11.334 -42.999 20.001s-22.166 19.5 -29.499 32.5s-11 28.167 -11 45.5c0 15.333 2.5 28.833 7.5 40.5s11.833 22 20.5 31s18.5 17.167 29.5 24.5
s22.5 14.333 34.5 21c-21.333 12.667 -39.833 26.667 -55.5 42s-23.5 36.333 -23.5 63c0 30 11.833 54 35.5 72s52.5 27 86.5 27s62.667 -9 86 -27s35 -42 35 -72c0 -26 -7.66699 -46.667 -23 -62s-33.666 -29 -54.999 -41c12 -6.66699 23.5 -13.834 34.5 -21.501
s20.667 -16.167 29 -25.5s15 -19.833 20 -31.5s7.5 -25.167 7.5 -40.5zM250.997 -12l-49 23l315 689l49 -23zM168.997 276v336.002c-12 -6.66699 -28 -12.334 -48 -17.001s-38.667 -7.66699 -56 -9l-9 39c30 4 57 11.167 81 21.5s41.667 24.166 53 41.499h48v-412h-69z
M688.997 320.002c0 18.667 -5.99902 33.5 -17.999 44.5s-27.667 16.5 -47 16.5s-35 -5.5 -47 -16.5s-18 -25.833 -18 -44.5c0 -19.333 6.16699 -34.833 18.5 -46.5s28.166 -23.167 47.499 -34.5c19.333 11.333 34.833 22.833 46.5 34.5s17.5 27.167 17.5 46.5z
M694.998 99.002c0 23.333 -6.83301 41.832 -20.5 55.499s-31.167 26.5 -52.5 38.5c-21.333 -12 -39 -24.667 -53 -38s-21 -31.666 -21 -54.999c0 -20 7.33301 -35.833 22 -47.5s32 -17.5 52 -17.5c21.333 0 38.833 5.83301 52.5 17.5s20.5 27.167 20.5 46.5z" />
    <glyph glyph-name="threeeighths" unicode="&#x215c;" horiz-adv-x="806" 
d="M757 98c0 -32 -12.6699 -57.5 -38.0029 -76.5s-57.333 -28.5 -96 -28.5c-18 0 -35.167 2.33301 -51.5 7s-30.666 11.334 -42.999 20.001s-22.166 19.5 -29.499 32.5s-11 28.167 -11 45.5c0 15.333 2.5 28.833 7.5 40.5s11.833 22 20.5 31s18.5 17.167 29.5 24.5
s22.5 14.333 34.5 21c-21.333 12.667 -39.833 26.667 -55.5 42s-23.5 36.333 -23.5 63c0 30 11.833 54 35.5 72s52.5 27 86.5 27s62.667 -9 86 -27s35 -42 35 -72c0 -26 -7.66699 -46.667 -23 -62s-33.666 -29 -54.999 -41c12 -6.66699 23.5 -13.834 34.5 -21.501
s20.667 -16.167 29 -25.5s15 -19.833 20 -31.5s7.5 -25.167 7.5 -40.5zM257.997 -12l-49 23l314 689l49 -23zM287.997 396c0 -19.333 -3.66406 -36.8359 -10.9971 -52.5029s-17.5 -29 -30.5 -40s-28.5 -19.5 -46.5 -25.5s-37.333 -9 -58 -9s-41 1.83301 -61 5.5
s-37 9.16699 -51 16.5l18 44c10.667 -5.33301 23.667 -9.66602 39 -12.999s30 -5 44 -5c27.333 0 48.833 7 64.5 21s23.5 33.667 23.5 59c0 14.667 -2.83301 27 -8.5 37s-13.334 18.167 -23.001 24.5s-20.834 11 -33.501 14s-26.334 4.5 -41.001 4.5h-12v37
c31.333 2.66699 56.5 10.667 75.5 24s28.5 31 28.5 53c0 20.667 -6.66699 35.334 -20 44.001s-29.666 13 -48.999 13c-28 0 -54.333 -5.33301 -79 -16l-17 41c31.333 14.667 66.666 22 105.999 22c36 0 65.833 -8.16699 89.5 -24.5s35.5 -39.833 35.5 -70.5
c0 -12.667 -2.33301 -24 -7 -34s-10.5 -18.667 -17.5 -26s-15 -13.666 -24 -18.999s-17.833 -9.66602 -26.5 -12.999v-2c10.667 -3.33301 21.5 -7.66602 32.5 -12.999s21 -12.333 30 -21s16.167 -19.334 21.5 -32.001s8 -27.334 8 -44.001zM689 319.997
c0 18.667 -5.99902 33.5 -17.999 44.5s-27.667 16.5 -47 16.5s-35 -5.5 -47 -16.5s-18 -25.833 -18 -44.5c0 -19.333 6.16699 -34.833 18.5 -46.5s28.166 -23.167 47.499 -34.5c19.333 11.333 34.833 22.833 46.5 34.5s17.5 27.167 17.5 46.5zM695.001 98.9971
c0 23.333 -6.83301 41.832 -20.5 55.499s-31.167 26.5 -52.5 38.5c-21.333 -12 -39 -24.667 -53 -38s-21 -31.666 -21 -54.999c0 -20 7.33301 -35.833 22 -47.5s32 -17.5 52 -17.5c21.333 0 38.833 5.83301 52.5 17.5s20.5 27.167 20.5 46.5z" />
    <glyph glyph-name="fiveeighths" unicode="&#x215d;" horiz-adv-x="806" 
d="M757 98c0 -32 -12.6699 -57.5 -38.0029 -76.5s-57.333 -28.5 -96 -28.5c-18 0 -35.167 2.33301 -51.5 7s-30.666 11.334 -42.999 20.001s-22.166 19.5 -29.499 32.5s-11 28.167 -11 45.5c0 15.333 2.5 28.833 7.5 40.5s11.833 22 20.5 31s18.5 17.167 29.5 24.5
s22.5 14.333 34.5 21c-21.333 12.667 -39.833 26.667 -55.5 42s-23.5 36.333 -23.5 63c0 30 11.833 54 35.5 72s52.5 27 86.5 27s62.667 -9 86 -27s35 -42 35 -72c0 -26 -7.66699 -46.667 -23 -62s-33.666 -29 -54.999 -41c12 -6.66699 23.5 -13.834 34.5 -21.501
s20.667 -16.167 29 -25.5s15 -19.833 20 -31.5s7.5 -25.167 7.5 -40.5zM259.997 -12l-49 23l315 689l49 -23zM288.997 395c0 -17.333 -3.5 -33.668 -10.5 -49.001s-17 -28.666 -30 -39.999s-28.5 -20.333 -46.5 -27s-38 -10 -60 -10c-20.667 0 -40.834 1.66699 -60.501 5
s-36.5 8.66602 -50.5 15.999l18 45c10.667 -5.33301 23.334 -9.66602 38.001 -12.999s29.667 -5 45 -5c27.333 0 48.666 7.83301 63.999 23.5s23 34.167 23 55.5c0 25.333 -8.16699 46 -24.5 62s-43.5 24 -81.5 24c-9.33301 0 -19 -0.5 -29 -1.5s-20.333 -2.16699 -31 -3.5
l23 211h199v-52h-152l-13 -117c3.33301 0.666992 7.5 1.16699 12.5 1.5s10.5 0.5 16.5 0.5c48.667 0 85.834 -11.5 111.501 -34.5s38.5 -53.5 38.5 -91.5zM688.997 319.998c0 18.667 -5.99902 33.5 -17.999 44.5s-27.667 16.5 -47 16.5s-35 -5.5 -47 -16.5
s-18 -25.833 -18 -44.5c0 -19.333 6.16699 -34.833 18.5 -46.5s28.166 -23.167 47.499 -34.5c19.333 11.333 34.833 22.833 46.5 34.5s17.5 27.167 17.5 46.5zM694.998 98.998c0 23.333 -6.83301 41.832 -20.5 55.499s-31.167 26.5 -52.5 38.5
c-21.333 -12 -39 -24.667 -53 -38s-21 -31.666 -21 -54.999c0 -20 7.33301 -35.833 22 -47.5s32 -17.5 52 -17.5c21.333 0 38.833 5.83301 52.5 17.5s20.5 27.167 20.5 46.5z" />
    <glyph glyph-name="seveneighths" unicode="&#x215e;" horiz-adv-x="806" 
d="M757 98c0 -32 -12.6699 -57.5 -38.0029 -76.5s-57.333 -28.5 -96 -28.5c-18 0 -35.167 2.33301 -51.5 7s-30.666 11.334 -42.999 20.001s-22.166 19.5 -29.499 32.5s-11 28.167 -11 45.5c0 15.333 2.5 28.833 7.5 40.5s11.833 22 20.5 31s18.5 17.167 29.5 24.5
s22.5 14.333 34.5 21c-21.333 12.667 -39.833 26.667 -55.5 42s-23.5 36.333 -23.5 63c0 30 11.833 54 35.5 72s52.5 27 86.5 27s62.667 -9 86 -27s35 -42 35 -72c0 -26 -7.66699 -46.667 -23 -62s-33.666 -29 -54.999 -41c12 -6.66699 23.5 -13.834 34.5 -21.501
s20.667 -16.167 29 -25.5s15 -19.833 20 -31.5s7.5 -25.167 7.5 -40.5zM224.997 -12l-49 23l314 689l49 -23zM256.997 560c-12 -27.333 -23.333 -54.833 -34 -82.5l-30 -79c-9.33301 -25 -17.333 -48 -24 -69s-12 -38.833 -16 -53.5h-81l161 359h-191v53h270zM688.997 320
c0 18.667 -5.99902 33.5 -17.999 44.5s-27.667 16.5 -47 16.5s-35 -5.5 -47 -16.5s-18 -25.833 -18 -44.5c0 -19.333 6.16699 -34.833 18.5 -46.5s28.166 -23.167 47.499 -34.5c19.333 11.333 34.833 22.833 46.5 34.5s17.5 27.167 17.5 46.5zM694.998 99
c0 23.333 -6.83301 41.832 -20.5 55.499s-31.167 26.5 -52.5 38.5c-21.333 -12 -39 -24.667 -53 -38s-21 -31.666 -21 -54.999c0 -20 7.33301 -35.833 22 -47.5s32 -17.5 52 -17.5c21.333 0 38.833 5.83301 52.5 17.5s20.5 27.167 20.5 46.5z" />
    <glyph glyph-name="uni215F" unicode="&#x215f;" horiz-adv-x="456" 
d="M251 -12l-49 23l315 689l49 -23zM169 276v336.002c-12 -6.66699 -28 -12.334 -48 -17.001s-38.667 -7.66699 -56 -9l-9 39c30 4 57 11.167 81 21.5s41.667 24.166 53 41.499h48v-412h-69z" />
    <glyph glyph-name="uni2189" unicode="&#x2189;" horiz-adv-x="806" 
d="M762 120c0 -19.333 -3.66699 -36.835 -11 -52.502s-17.666 -29 -30.999 -40s-29 -19.5 -47 -25.5s-37.333 -9 -58 -9s-40.834 1.83301 -60.501 5.5s-36.5 9.16699 -50.5 16.5l17 44c10.667 -5.33301 23.834 -9.66602 39.501 -12.999s30.5 -5 44.5 -5
c27.333 0 48.666 7 63.999 21s23 33.667 23 59c0 14.667 -2.83301 27 -8.5 37s-13.167 18.167 -22.5 24.5s-20.333 11 -33 14s-26.334 4.5 -41.001 4.5h-12v37c31.333 2.66699 56.333 10.667 75 24s28 31 28 53c0 20.667 -6.5 35.334 -19.5 44.001s-29.167 13 -48.5 13
c-27.333 0 -53.333 -5.33301 -78 -16l-16 42c15.333 7.33301 31.833 12.666 49.5 15.999s35.834 5 54.501 5c36 0 65.667 -8.16699 89 -24.5s35 -39.833 35 -70.5c0 -12.667 -2.16699 -24 -6.5 -34s-10 -18.667 -17 -26s-15 -13.666 -24 -18.999
s-17.833 -9.66602 -26.5 -12.999v-2c10.667 -3.33301 21.5 -7.66602 32.5 -12.999s21 -12.333 30 -21s16.167 -19.334 21.5 -32.001s8 -27.334 8 -44.001zM269 -12.002l-49 23l315 689l49 -23zM312 481.998c0 -26.667 -2.33301 -52.834 -7 -78.501
s-12.334 -48.5 -23.001 -68.5s-24.5 -36 -41.5 -48s-37.833 -18 -62.5 -18s-45.5 6 -62.5 18s-30.833 28 -41.5 48s-18.334 42.833 -23.001 68.5s-7 51.834 -7 78.501s2.33301 52.834 7 78.501s12.334 48.5 23.001 68.5s24.5 36 41.5 48s37.833 18 62.5 18s45.5 -6 62.5 -18
s30.833 -28 41.5 -48s18.334 -42.833 23.001 -68.5s7 -51.834 7 -78.501zM247 482.998c0 20.667 -1 41.167 -3 61.5s-5.5 38.5 -10.5 54.5s-12 29 -21 39s-20.5 15 -34.5 15s-25.5 -5 -34.5 -15s-16 -23 -21 -39s-8.5 -34.167 -10.5 -54.5s-3 -40.833 -3 -61.5
c0 -21.333 1 -42 3 -62s5.5 -38 10.5 -54s12 -28.833 21 -38.5s20.5 -14.5 34.5 -14.5s25.5 4.83301 34.5 14.5s16 22.5 21 38.5s8.5 34 10.5 54s3 40.667 3 62z" />
    <glyph glyph-name="arrowleft" unicode="&#x2190;" horiz-adv-x="940" 
d="M191 303l196 -196l-45 -43l-270 270l270 270l45 -44l-196 -195h753v-62h-753z" />
    <glyph glyph-name="arrowup" unicode="&#x2191;" horiz-adv-x="688" 
d="M573 479l-195 195v-674h-68v674l-195 -195l-43 44l272 272l272 -272z" />
    <glyph glyph-name="arrowright" unicode="&#x2192;" horiz-adv-x="940" 
d="M598 64l-45 43l196 196h-753v62h753l-196 195l45 44l270 -270z" />
    <glyph glyph-name="arrowdown" unicode="&#x2193;" horiz-adv-x="688" 
d="M344 -10l-272 272l43 44l195 -195v674h68v-674l195 195l43 -44z" />
    <glyph glyph-name="arrowboth" unicode="&#x2194;" horiz-adv-x="1200" 
d="M858 64l-45 43l196 196h-818l196 -196l-45 -43l-270 270l270 270l45 -44l-196 -195h818l-196 195l45 44l270 -270z" />
    <glyph glyph-name="uni2196" unicode="&#x2196;" horiz-adv-x="688" 
d="M600 120l-456 456v-275h-64v387h374v-59h-268l462 -461z" />
    <glyph glyph-name="uni2197" unicode="&#x2197;" horiz-adv-x="688" 
d="M544 301v275l-456 -456l-48 48l462 461h-268v59h374v-387h-64z" />
    <glyph glyph-name="uni2198" unicode="&#x2198;" horiz-adv-x="688" 
d="M234 0v59h268l-462 461l48 48l456 -456v275h64v-387h-374z" />
    <glyph glyph-name="uni2199" unicode="&#x2199;" horiz-adv-x="688" 
d="M186 59h268v-59h-374v387h64v-275l456 456l48 -48z" />
    <glyph glyph-name="carriagereturn" unicode="&#x21b5;" horiz-adv-x="940" 
d="M183 0l182 -181l-45 -44l-256 256l256 256l45 -44l-182 -181h605v284h-205v62h273v-408h-673z" />
    <glyph glyph-name="uni21E6" unicode="&#x21e6;" horiz-adv-x="890" 
d="M402 208v-208h-32l-344 344l344 344h32v-208l408 39v-350zM752 456l-405 -38v165l-239 -239l239 -239v165l405 -38v224z" />
    <glyph glyph-name="uni21E7" unicode="&#x21e7;" horiz-adv-x="786" 
d="M530 407l42 -407h-358l42 407h-208v32l345 345l345 -345v-32h-208zM393 702l-242 -243h169l-37 -403h220l-37 403h169z" />
    <glyph glyph-name="uni21E8" unicode="&#x21e8;" horiz-adv-x="890" 
d="M520 0h-32v208l-408 -39v350l408 -39v208h32l344 -344zM543 583v-165l-405 38v-224l405 38v-165l239 239z" />
    <glyph glyph-name="uni21E9" unicode="&#x21e9;" horiz-adv-x="786" 
d="M393 -96l-345 345v32h208l-42 407h358l-42 -407h208v-32zM466 229l37 403h-220l37 -403h-169l242 -243l242 243h-169z" />
    <glyph glyph-name="partialdiff" unicode="&#x2202;" 
d="M473 250c0 -81.333 -18.3311 -144.999 -54.998 -190.999s-89.334 -69 -158.001 -69c-35.333 0 -66 6 -92 18s-47.5 27.833 -64.5 47.5s-29.667 42.334 -38 68.001s-12.5 52.167 -12.5 79.5c0 66.667 19.833 118 59.5 154s93.167 54 160.5 54
c17.333 0 34.166 -1.66699 50.499 -5s31.5 -7.66602 45.5 -12.999c-12.667 33.333 -27.667 63 -45 89s-37 48.667 -59 68s-46.5 36.166 -73.5 50.499s-56.5 26.833 -88.5 37.5l20 59c50 -14 96.333 -33.833 139 -59.5s79.667 -57.334 111 -95.001
s55.833 -80.834 73.5 -129.501s26.5 -103 26.5 -163zM389.002 248.001c0 18.667 -0.500977 35.001 -1.50098 49.001s-3.16699 29.667 -6.5 47c-14.667 5.33301 -29.667 9.66602 -45 12.999s-31.333 5 -48 5c-100 0 -150 -52.667 -150 -158c0 -20 2.33301 -39.333 7 -58
s11.834 -35.167 21.501 -49.5s22 -25.833 37 -34.5s33.167 -13 54.5 -13c44.667 0 77.667 17.667 99 53s32 84 32 146z" />
    <glyph glyph-name="Delta" unicode="&#x2206;" horiz-adv-x="590" 
d="M19 0l232 688h87l233 -688h-552zM313 523c-5.33301 17.333 -9.49902 33.6689 -12.499 49.002s-5.5 28.666 -7.5 39.999h-2c-2 -11.333 -4.83301 -25.333 -8.5 -42s-7.83398 -32.334 -12.501 -47.001l-147 -465h335z" />
    <glyph glyph-name="product" unicode="&#x220f;" horiz-adv-x="742" 
d="M592 626v-841h-92v841h-258v-841h-92v841h-103v62h648v-62h-103z" />
    <glyph glyph-name="summation" unicode="&#x2211;" 
d="M46 -215l238 471l-237 432h420v-69h-289l201 -363l-205 -399h299v-72h-427z" />
    <glyph glyph-name="minus" unicode="&#x2212;" horiz-adv-x="518" 
d="M62 303v62h394v-62h-394z" />
    <glyph glyph-name="uni2219" unicode="&#x2219;" horiz-adv-x="518" 
d="M353 356c0 -13.333 -2.5 -25.666 -7.5 -36.999s-11.667 -21.166 -20 -29.499s-18.333 -15 -30 -20s-23.834 -7.5 -36.501 -7.5c-13.333 0 -25.666 2.5 -36.999 7.5s-21.166 11.667 -29.499 20s-15 18.166 -20 29.499s-7.5 23.666 -7.5 36.999
c0 12.667 2.5 24.834 7.5 36.501s11.667 21.667 20 30s18.166 15 29.499 20s23.666 7.5 36.999 7.5c12.667 0 24.834 -2.5 36.501 -7.5s21.667 -11.667 30 -20s15 -18.333 20 -30s7.5 -23.834 7.5 -36.501z" />
    <glyph glyph-name="radical" unicode="&#x221a;" 
d="M323 0h-80l-134 449h-83v53h151l102 -395h2l139 678h79z" />
    <glyph glyph-name="infinity" unicode="&#x221e;" horiz-adv-x="750" 
d="M695 339c0 -25.333 -3.66602 -49.002 -10.999 -71.002s-17.833 -41 -31.5 -57s-30.167 -28.667 -49.5 -38s-40.666 -14 -63.999 -14c-20 0 -38 3.33301 -54 10s-30.667 15.834 -44 27.501s-25.5 25 -36.5 40s-21.5 31.167 -31.5 48.5
c-10 -17.333 -20.333 -33.666 -31 -48.999s-22.334 -28.666 -35.001 -39.999s-26.667 -20.333 -42 -27s-33 -10 -53 -10c-23.333 0 -44.666 4.5 -63.999 13.5s-35.833 21.5 -49.5 37.5s-24.334 35 -32.001 57s-11.5 46 -11.5 72c0 25.333 3.83301 49 11.5 71
s18.334 41 32.001 57s30.167 28.667 49.5 38s40.666 14 63.999 14c20 0 37.833 -3.5 53.5 -10.5s30 -16.167 43 -27.5s25 -24.833 36 -40.5s21.5 -31.834 31.5 -48.501c10 16.667 20.333 32.667 31 48s22.5 28.833 35.5 40.5s27.333 21 43 28s33.5 10.5 53.5 10.5
c23.333 0 44.666 -4.66699 63.999 -14s35.833 -22 49.5 -38s24.167 -35 31.5 -57s11 -45.667 11 -71zM638.001 338.998c0 35.333 -8.83301 63.501 -26.5 84.501s-41.834 31.5 -72.501 31.5c-15.333 0 -29 -3 -41 -9s-23.167 -14 -33.5 -24s-20 -21.833 -29 -35.5
s-17.833 -28.167 -26.5 -43.5l27.5 -45.5c9 -14.333 18.667 -26.833 29 -37.5s21.5 -19.167 33.5 -25.5s25.333 -9.5 40 -9.5c30.667 0 54.834 10.167 72.501 30.5s26.5 48.166 26.5 83.499zM341.001 334.999l-27.5 45.5c-9 14.333 -18.667 26.833 -29 37.5
s-21.5 19.167 -33.5 25.5s-25.333 9.5 -40 9.5c-30.667 0 -55 -10.333 -73 -31s-27 -48.667 -27 -84c0 -34.667 9 -62.5 27 -83.5s42.333 -31.5 73 -31.5c15.333 0 29 3 41 9s23.167 14 33.5 24s20 21.833 29 35.5s17.833 28.167 26.5 43.5z" />
    <glyph glyph-name="integral" unicode="&#x222b;" horiz-adv-x="394" 
d="M346 722c-13.333 4 -27.333 6 -42 6c-32 0 -55.5 -10 -70.5 -30s-22.5 -49 -22.5 -87v-648c0 -56.667 -14.833 -101.167 -44.5 -133.5s-70.5 -48.5 -122.5 -48.5c-12 0 -24 0.833008 -36 2.5s-22.333 4.16699 -31 7.5l12 60c12.667 -4 26.667 -6 42 -6
c32 0 55.5 10 70.5 30s22.5 49 22.5 87v645c0 56.667 14.833 101.167 44.5 133.5s70.5 48.5 122.5 48.5c12 0 24 -0.833008 36 -2.5s22.333 -4.16699 31 -7.5z" />
    <glyph glyph-name="approxequal" unicode="&#x2248;" horiz-adv-x="518" 
d="M456 407c-11.333 -13.333 -25.666 -24.332 -42.999 -32.999s-37.333 -13 -60 -13c-17.333 0 -33.666 3.33301 -48.999 10s-30.5 14.167 -45.5 22.5s-30.167 15.833 -45.5 22.5s-31.333 10 -48 10c-22.667 0 -42.667 -4.33301 -60 -13s-31.666 -19.667 -42.999 -33v64
c11.333 13.333 25.666 24.166 42.999 32.499s37.333 12.5 60 12.5c16.667 0 32.667 -3.33301 48 -10s30.5 -14 45.5 -22s30.167 -15.333 45.5 -22s31.666 -10 48.999 -10c22.667 0 42.667 4.33301 60 13s31.666 20 42.999 34v-65zM456 224.001
c-11.333 -13.333 -25.666 -24.332 -42.999 -32.999s-37.333 -13 -60 -13c-17.333 0 -33.666 3.33301 -48.999 10s-30.5 14.167 -45.5 22.5s-30.167 15.833 -45.5 22.5s-31.333 10 -48 10c-22.667 0 -42.667 -4.5 -60 -13.5s-31.666 -20.167 -42.999 -33.5v65
c11.333 13.333 25.666 24.166 42.999 32.499s37.333 12.5 60 12.5c16.667 0 32.667 -3.33301 48 -10s30.5 -14 45.5 -22s30.167 -15.333 45.5 -22s31.666 -10 48.999 -10c22.667 0 42.667 4.16699 60 12.5s31.666 19.5 42.999 33.5v-64z" />
    <glyph glyph-name="notequal" unicode="&#x2260;" horiz-adv-x="518" 
d="M233 211l-51 -123l-43 19l44 104h-121v62h146l51 121h-197v62h223l51 121l42 -19l-43 -102h121v-62h-147l-50 -121h197v-62h-223z" />
    <glyph glyph-name="lessequal" unicode="&#x2264;" horiz-adv-x="518" 
d="M62 320v55l394 169v-67l-317 -129v-2l317 -128v-67zM62 0v59h394v-59h-394z" />
    <glyph glyph-name="greaterequal" unicode="&#x2265;" horiz-adv-x="518" 
d="M62 151v67l317 128v2l-317 129v67l394 -169v-55zM62 0v59h394v-59h-394z" />
    <glyph glyph-name="dotmath" unicode="&#x22c5;" horiz-adv-x="518" 
d="M316 333c0 -15.333 -5.66699 -28.666 -17 -39.999s-24.666 -17 -39.999 -17s-28.666 5.66699 -39.999 17s-17 24.666 -17 39.999s5.66699 28.666 17 39.999s24.666 17 39.999 17s28.666 -5.66699 39.999 -17s17 -24.666 17 -39.999z" />
    <glyph glyph-name="uni2300" unicode="&#x2300;" horiz-adv-x="850" 
d="M697 573c26.667 -30.667 47.501 -65.501 62.501 -104.501s22.5 -80.5 22.5 -124.5c0 -49.333 -9.33301 -95.5 -28 -138.5s-44.167 -80.5 -76.5 -112.5s-70.166 -57.167 -113.499 -75.5s-89.666 -27.5 -138.999 -27.5c-44 0 -85.333 7.33301 -124 22
s-73.334 34.667 -104.001 60l-106 -106l-45 45l106 105c-26 30.667 -46.5 65.334 -61.5 104.001s-22.5 80 -22.5 124c0 48.667 9.33301 94.5 28 137.5s44.167 80.5 76.5 112.5s70.166 57.333 113.499 76s89.666 28 138.999 28c44 0 85.167 -7.5 123.5 -22.5
s72.833 -35.167 103.5 -60.5l107 108l45 -45zM607.001 570.999c-24.667 21.333 -52.335 37.8369 -83.002 49.5039s-63.667 17.5 -99 17.5c-40 0 -77.667 -7.66699 -113 -23s-66.166 -36.333 -92.499 -63s-47.166 -57.834 -62.499 -93.501s-23 -73.834 -23 -114.501
c0 -34.667 5.66699 -67.334 17 -98.001s27 -58.334 47 -83.001zM716 344.003c0 34.667 -5.66504 67.3301 -16.998 97.9971s-27.333 58.334 -48 83.001l-409 -408c24.667 -21.333 52.5 -37.833 83.5 -49.5s64.167 -17.5 99.5 -17.5c40 0 77.667 7.66699 113 23
s66.166 36.333 92.499 63s47.166 57.834 62.499 93.501s23 73.834 23 114.501z" />
    <glyph glyph-name="uni2318" unicode="&#x2318;" horiz-adv-x="860" 
d="M798 121c0 -18.667 -3.66699 -36 -11 -52s-17.333 -29.833 -30 -41.5s-27.5 -20.834 -44.5 -27.501s-35.5 -10 -55.5 -10c-47.333 0 -83.833 13.667 -109.5 41s-38.5 64.666 -38.5 111.999v71h-158v-71c0 -47.333 -12.833 -84.666 -38.5 -111.999s-62.167 -41 -109.5 -41
c-20 0 -38.5 3.33301 -55.5 10s-31.833 15.834 -44.5 27.501s-22.667 25.5 -30 41.5s-11 33.333 -11 52c0 40.667 14.5 73.667 43.5 99s69.5 38 121.5 38h65v172h-65c-52 0 -92.5 12.667 -121.5 38s-43.5 58.333 -43.5 99c0 18.667 3.66699 36 11 52s17.333 29.833 30 41.5
s27.5 20.834 44.5 27.501s35.5 10 55.5 10c47.333 0 83.833 -13.667 109.5 -41s38.5 -64.666 38.5 -111.999v-71h158v71c0 47.333 12.833 84.666 38.5 111.999s62.167 41 109.5 41c20 0 38.5 -3.33301 55.5 -10s31.833 -15.834 44.5 -27.501s22.667 -25.5 30 -41.5
s11 -33.333 11 -52c0 -40.667 -14.5 -73.667 -43.5 -99s-69.5 -38 -121.5 -38h-65v-172h65c52 0 92.5 -12.667 121.5 -38s43.5 -58.333 43.5 -99zM739 567c0 25.333 -7.83301 46.5 -23.5 63.5s-35.167 25.5 -58.5 25.5c-28.667 0 -50.667 -10 -66 -30s-23 -47 -23 -81v-71
h67c34 0 59.833 8.5 77.5 25.5s26.5 39.5 26.5 67.5zM739 121c0 28 -8.83301 50.5 -26.5 67.5s-43.5 25.5 -77.5 25.5h-67v-71c0 -34 7.66699 -61 23 -81s37.333 -30 66 -30c23.333 0 42.833 8.5 58.5 25.5s23.5 38.167 23.5 63.5zM509 430h-158v-172h158v172zM292 545
c0 34 -7.66699 61 -23 81s-37.333 30 -66 30c-23.333 0 -42.833 -8.5 -58.5 -25.5s-23.5 -38.167 -23.5 -63.5c0 -28 8.83301 -50.5 26.5 -67.5s43.5 -25.5 77.5 -25.5h67v71zM292 214h-67c-34 0 -59.833 -8.5 -77.5 -25.5s-26.5 -39.5 -26.5 -67.5
c0 -25.333 7.83301 -46.5 23.5 -63.5s35.167 -25.5 58.5 -25.5c28.667 0 50.667 10 66 30s23 47 23 81v71z" />
    <glyph glyph-name="uni2324" unicode="&#x2324;" horiz-adv-x="800" 
d="M76 626v62h648v-62h-648zM623 310l-223 223l-223 -223l-46 46l269 269l269 -269z" />
    <glyph glyph-name="uni2325" unicode="&#x2325;" horiz-adv-x="860" 
d="M421 346v62h373v-62h-373zM390 0l-158 346h-166v62h215l158 -346h355v-62h-404z" />
    <glyph glyph-name="uni2326" unicode="&#x2326;" horiz-adv-x="1180" 
d="M780 0h-696v688h696l344 -344zM751 631h-604v-574h604l288 287zM667 129l-174 175l-175 -175l-42 43l175 174l-175 174l42 42l175 -175l174 175l42 -42l-174 -174l174 -174z" />
    <glyph glyph-name="uni232B" unicode="&#x232b;" horiz-adv-x="1180" 
d="M400 0l-344 344l344 344h696v-688h-696zM1033 631h-604l-288 -287l288 -287h604v574zM862 129l-175 175l-174 -175l-42 43l174 174l-174 174l42 42l174 -175l175 175l42 -42l-175 -174l175 -174z" />
    <glyph glyph-name="uni2460" unicode="&#x2460;" horiz-adv-x="920" 
d="M862 392c0 -55.333 -10.5 -107.5 -31.5 -156.5s-49.667 -91.667 -86 -128s-79 -65 -128 -86s-101.167 -31.5 -156.5 -31.5s-107.5 10.5 -156.5 31.5s-91.667 49.667 -128 86s-65 79 -86 128s-31.5 101.167 -31.5 156.5s10.5 107.5 31.5 156.5s49.667 91.667 86 128
s79 65 128 86s101.167 31.5 156.5 31.5s107.5 -10.5 156.5 -31.5s91.667 -49.667 128 -86s65 -79 86 -128s31.5 -101.167 31.5 -156.5zM805 393c0 48.667 -9 94.667 -27 138s-42.667 81 -74 113s-68 57.333 -110 76s-86.667 28 -134 28s-92 -9.33301 -134 -28
s-78.5 -44 -109.5 -76s-55.5 -69.667 -73.5 -113s-27 -89.333 -27 -138c0 -49.333 9 -95.5 27 -138.5s42.5 -80.5 73.5 -112.5s67.5 -57.333 109.5 -76s86.667 -28 134 -28s92 9.33301 134 28s78.667 44 110 76s56 69.5 74 112.5s27 89.167 27 138.5zM448 192v336.002
c-11.333 -6.66699 -27 -12.334 -47 -17.001s-38.667 -7.66699 -56 -9l-8 39c30 4 56.5 11.167 79.5 21.5s40.167 24.166 51.5 41.499h44v-412h-64z" />
    <glyph glyph-name="uni2461" unicode="&#x2461;" horiz-adv-x="920" 
d="M862 392c0 -55.333 -10.5 -107.5 -31.5 -156.5s-49.667 -91.667 -86 -128s-79 -65 -128 -86s-101.167 -31.5 -156.5 -31.5s-107.5 10.5 -156.5 31.5s-91.667 49.667 -128 86s-65 79 -86 128s-31.5 101.167 -31.5 156.5s10.5 107.5 31.5 156.5s49.667 91.667 86 128
s79 65 128 86s101.167 31.5 156.5 31.5s107.5 -10.5 156.5 -31.5s91.667 -49.667 128 -86s65 -79 86 -128s31.5 -101.167 31.5 -156.5zM805 393c0 48.667 -9 94.667 -27 138s-42.667 81 -74 113s-68 57.333 -110 76s-86.667 28 -134 28s-92 -9.33301 -134 -28
s-78.5 -44 -109.5 -76s-55.5 -69.667 -73.5 -113s-27 -89.333 -27 -138c0 -49.333 9 -95.5 27 -138.5s42.5 -80.5 73.5 -112.5s67.5 -57.333 109.5 -76s86.667 -28 134 -28s92 9.33301 134 28s78.667 44 110 76s56 69.5 74 112.5s27 89.167 27 138.5zM334 192l150 213.999
c13.333 19.333 22.333 35.833 27 49.5s7 26.834 7 39.501c0 46 -26.667 69 -80 69c-13.333 0 -26.666 -1.66699 -39.999 -5s-25 -7.66602 -35 -12.999l-16 42c14 7.33301 30.167 13 48.5 17s37.166 6 56.499 6c46 0 79.5 -10.333 100.5 -31s31.5 -47.667 31.5 -81
c0 -15.333 -4 -32.333 -12 -51s-21.333 -40.334 -40 -65.001l-104 -138h161v-53h-255z" />
    <glyph glyph-name="uni2462" unicode="&#x2462;" horiz-adv-x="920" 
d="M862 392c0 -55.333 -10.5 -107.5 -31.5 -156.5s-49.667 -91.667 -86 -128s-79 -65 -128 -86s-101.167 -31.5 -156.5 -31.5s-107.5 10.5 -156.5 31.5s-91.667 49.667 -128 86s-65 79 -86 128s-31.5 101.167 -31.5 156.5s10.5 107.5 31.5 156.5s49.667 91.667 86 128
s79 65 128 86s101.167 31.5 156.5 31.5s107.5 -10.5 156.5 -31.5s91.667 -49.667 128 -86s65 -79 86 -128s31.5 -101.167 31.5 -156.5zM805 393c0 48.667 -9 94.667 -27 138s-42.667 81 -74 113s-68 57.333 -110 76s-86.667 28 -134 28s-92 -9.33301 -134 -28
s-78.5 -44 -109.5 -76s-55.5 -69.667 -73.5 -113s-27 -89.333 -27 -138c0 -49.333 9 -95.5 27 -138.5s42.5 -80.5 73.5 -112.5s67.5 -57.333 109.5 -76s86.667 -28 134 -28s92 9.33301 134 28s78.667 44 110 76s56 69.5 74 112.5s27 89.167 27 138.5zM602 312
c0 -19.333 -3.66602 -36.8389 -10.999 -52.5059s-17.333 -29 -30 -40s-27.667 -19.5 -45 -25.5s-36.333 -9 -57 -9c-20 0 -39.833 1.83301 -59.5 5.5s-36.167 9.16699 -49.5 16.5l17 44c10.667 -5.33301 23.5 -9.66602 38.5 -12.999s29.5 -5 43.5 -5
c26.667 0 47.667 7 63 21s23 33.667 23 59c0 29.333 -10 50 -30 62s-44.333 18 -73 18h-12v37c30.667 2.66699 55.167 10.834 73.5 24.501s27.5 31.5 27.5 53.5c0 20.667 -6.33301 35.334 -19 44.001s-28.667 13 -48 13c-14 0 -27.667 -1.5 -41 -4.5
s-25.666 -7.16699 -36.999 -12.5l-16 41c31.333 14.667 65.666 22 102.999 22c34 0 62.667 -8.16699 86 -24.5s35 -39.833 35 -70.5c0 -12.667 -2.16699 -24 -6.5 -34s-10 -18.667 -17 -26s-14.833 -13.666 -23.5 -18.999s-17.334 -9.66602 -26.001 -12.999v-2
c10.667 -3.33301 21.5 -7.66602 32.5 -12.999s20.833 -12.5 29.5 -21.5s15.667 -19.667 21 -32s8 -26.833 8 -43.5z" />
    <glyph glyph-name="uni2463" unicode="&#x2463;" horiz-adv-x="920" 
d="M862 392c0 -55.333 -10.5 -107.5 -31.5 -156.5s-49.667 -91.667 -86 -128s-79 -65 -128 -86s-101.167 -31.5 -156.5 -31.5s-107.5 10.5 -156.5 31.5s-91.667 49.667 -128 86s-65 79 -86 128s-31.5 101.167 -31.5 156.5s10.5 107.5 31.5 156.5s49.667 91.667 86 128
s79 65 128 86s101.167 31.5 156.5 31.5s107.5 -10.5 156.5 -31.5s91.667 -49.667 128 -86s65 -79 86 -128s31.5 -101.167 31.5 -156.5zM805 393c0 48.667 -9 94.667 -27 138s-42.667 81 -74 113s-68 57.333 -110 76s-86.667 28 -134 28s-92 -9.33301 -134 -28
s-78.5 -44 -109.5 -76s-55.5 -69.667 -73.5 -113s-27 -89.333 -27 -138c0 -49.333 9 -95.5 27 -138.5s42.5 -80.5 73.5 -112.5s67.5 -57.333 109.5 -76s86.667 -28 134 -28s92 9.33301 134 28s78.667 44 110 76s56 69.5 74 112.5s27 89.167 27 138.5zM537 283v-91h-58v91
h-168v40l166 281h60v-283h48v-38h-48zM480 543l-12.5 -28.001c-4.33301 -9.33301 -9.5 -19.333 -15.5 -30l-96 -164h124v160c0 10.667 0.166992 21.334 0.5 32.001s0.833008 20.667 1.5 30h-2z" />
    <glyph glyph-name="uni2464" unicode="&#x2464;" horiz-adv-x="920" 
d="M862 392c0 -55.333 -10.5 -107.5 -31.5 -156.5s-49.667 -91.667 -86 -128s-79 -65 -128 -86s-101.167 -31.5 -156.5 -31.5s-107.5 10.5 -156.5 31.5s-91.667 49.667 -128 86s-65 79 -86 128s-31.5 101.167 -31.5 156.5s10.5 107.5 31.5 156.5s49.667 91.667 86 128
s79 65 128 86s101.167 31.5 156.5 31.5s107.5 -10.5 156.5 -31.5s91.667 -49.667 128 -86s65 -79 86 -128s31.5 -101.167 31.5 -156.5zM805 393c0 48.667 -9 94.667 -27 138s-42.667 81 -74 113s-68 57.333 -110 76s-86.667 28 -134 28s-92 -9.33301 -134 -28
s-78.5 -44 -109.5 -76s-55.5 -69.667 -73.5 -113s-27 -89.333 -27 -138c0 -49.333 9 -95.5 27 -138.5s42.5 -80.5 73.5 -112.5s67.5 -57.333 109.5 -76s86.667 -28 134 -28s92 9.33301 134 28s78.667 44 110 76s56 69.5 74 112.5s27 89.167 27 138.5zM587 312
c0 -17.333 -3.49805 -33.833 -10.498 -49.5s-16.667 -29.167 -29 -40.5s-27.333 -20.333 -45 -27s-37.167 -10 -58.5 -10c-19.333 0 -38.833 1.83301 -58.5 5.5s-36.167 9.16699 -49.5 16.5l18 44c10 -5.33301 22.333 -9.66602 37 -12.999s29.334 -5 44.001 -5
c26.667 0 47.667 7.83301 63 23.5s23 34.167 23 55.5c0 25.333 -8 46.166 -24 62.499s-43 24.5 -81 24.5c-9.33301 0 -18.833 -0.5 -28.5 -1.5s-19.834 -2.16699 -30.501 -3.5l24 210h193v-52h-149l-13 -117c3.33301 0.666992 7.66602 1.16699 12.999 1.5
s10.666 0.5 15.999 0.5c47.333 0 83.5 -11.333 108.5 -34s37.5 -53 37.5 -91z" />
    <glyph glyph-name="uni2465" unicode="&#x2465;" horiz-adv-x="920" 
d="M862 392c0 -55.333 -10.5 -107.5 -31.5 -156.5s-49.667 -91.667 -86 -128s-79 -65 -128 -86s-101.167 -31.5 -156.5 -31.5s-107.5 10.5 -156.5 31.5s-91.667 49.667 -128 86s-65 79 -86 128s-31.5 101.167 -31.5 156.5s10.5 107.5 31.5 156.5s49.667 91.667 86 128
s79 65 128 86s101.167 31.5 156.5 31.5s107.5 -10.5 156.5 -31.5s91.667 -49.667 128 -86s65 -79 86 -128s31.5 -101.167 31.5 -156.5zM805 393c0 48.667 -9 94.667 -27 138s-42.667 81 -74 113s-68 57.333 -110 76s-86.667 28 -134 28s-92 -9.33301 -134 -28
s-78.5 -44 -109.5 -76s-55.5 -69.667 -73.5 -113s-27 -89.333 -27 -138c0 -49.333 9 -95.5 27 -138.5s42.5 -80.5 73.5 -112.5s67.5 -57.333 109.5 -76s86.667 -28 134 -28s92 9.33301 134 28s78.667 44 110 76s56 69.5 74 112.5s27 89.167 27 138.5zM585 315
c0 -17.333 -2.66309 -33.832 -7.99609 -49.499s-13.333 -29.5 -24 -41.5s-24 -21.5 -40 -28.5s-35 -10.5 -57 -10.5c-42.667 0 -75.167 14 -97.5 42s-33.5 66.333 -33.5 115c0 36.667 5.66699 69.834 17 99.501s26.666 55.667 45.999 78s42.166 41.166 68.499 56.499
s54.166 26.666 83.499 33.999l14 -43c-36.667 -11.333 -68.167 -27.5 -94.5 -48.5s-46.833 -50.5 -61.5 -88.5c8 3.33301 16.667 5.83301 26 7.5s18.666 2.5 27.999 2.5c40.667 0 73 -10.833 97 -32.5s36 -52.5 36 -92.5zM525.004 315.001
c0 59.333 -28.334 89.001 -85.001 89.001c-18 0 -35 -3 -51 -9c-2 -10 -3.16699 -18.833 -3.5 -26.5s-0.5 -17.167 -0.5 -28.5c0 -35.333 5.83301 -62.833 17.5 -82.5s29.834 -29.5 54.501 -29.5c23.333 0 40.5 8.66699 51.5 26s16.5 37.666 16.5 60.999z" />
    <glyph glyph-name="uni2466" unicode="&#x2466;" horiz-adv-x="920" 
d="M862 392c0 -55.333 -10.5 -107.5 -31.5 -156.5s-49.667 -91.667 -86 -128s-79 -65 -128 -86s-101.167 -31.5 -156.5 -31.5s-107.5 10.5 -156.5 31.5s-91.667 49.667 -128 86s-65 79 -86 128s-31.5 101.167 -31.5 156.5s10.5 107.5 31.5 156.5s49.667 91.667 86 128
s79 65 128 86s101.167 31.5 156.5 31.5s107.5 -10.5 156.5 -31.5s91.667 -49.667 128 -86s65 -79 86 -128s31.5 -101.167 31.5 -156.5zM805 393c0 48.667 -9 94.667 -27 138s-42.667 81 -74 113s-68 57.333 -110 76s-86.667 28 -134 28s-92 -9.33301 -134 -28
s-78.5 -44 -109.5 -76s-55.5 -69.667 -73.5 -113s-27 -89.333 -27 -138c0 -49.333 9 -95.5 27 -138.5s42.5 -80.5 73.5 -112.5s67.5 -57.333 109.5 -76s86.667 -28 134 -28s92 9.33301 134 28s78.667 44 110 76s56 69.5 74 112.5s27 89.167 27 138.5zM544 476l-33.5 -82.5
c-11 -27.667 -21 -54 -30 -79s-16.833 -48 -23.5 -69s-11.667 -38.833 -15 -53.5h-78l158 360h-185v52h262z" />
    <glyph glyph-name="uni2467" unicode="&#x2467;" horiz-adv-x="920" 
d="M862 392c0 -55.333 -10.5 -107.5 -31.5 -156.5s-49.667 -91.667 -86 -128s-79 -65 -128 -86s-101.167 -31.5 -156.5 -31.5s-107.5 10.5 -156.5 31.5s-91.667 49.667 -128 86s-65 79 -86 128s-31.5 101.167 -31.5 156.5s10.5 107.5 31.5 156.5s49.667 91.667 86 128
s79 65 128 86s101.167 31.5 156.5 31.5s107.5 -10.5 156.5 -31.5s91.667 -49.667 128 -86s65 -79 86 -128s31.5 -101.167 31.5 -156.5zM805 393c0 48.667 -9 94.667 -27 138s-42.667 81 -74 113s-68 57.333 -110 76s-86.667 28 -134 28s-92 -9.33301 -134 -28
s-78.5 -44 -109.5 -76s-55.5 -69.667 -73.5 -113s-27 -89.333 -27 -138c0 -49.333 9 -95.5 27 -138.5s42.5 -80.5 73.5 -112.5s67.5 -57.333 109.5 -76s86.667 -28 134 -28s92 9.33301 134 28s78.667 44 110 76s56 69.5 74 112.5s27 89.167 27 138.5zM591 291
c0 -32 -12.333 -57.6689 -37 -77.002s-56 -29 -94 -29c-17.333 0 -33.833 2.33301 -49.5 7s-29.5 11.334 -41.5 20.001s-21.5 19.5 -28.5 32.5s-10.5 28.167 -10.5 45.5c0 15.333 2.5 28.833 7.5 40.5s11.667 22 20 31s17.833 17.167 28.5 24.5s22 14.333 34 21
c-10.667 6 -20.667 12.333 -30 19s-17.5 14.167 -24.5 22.5s-12.667 17.5 -17 27.5s-6.5 21.667 -6.5 35c0 30 11.333 54.167 34 72.5s50.667 27.5 84 27.5c34 0 62.333 -9 85 -27s34 -42 34 -72c0 -25.333 -7.5 -45.833 -22.5 -61.5s-33.167 -29.5 -54.5 -41.5
c12 -6.66699 23.333 -13.667 34 -21s20 -15.666 28 -24.999s14.5 -19.833 19.5 -31.5s7.5 -25.167 7.5 -40.5zM526 511.998c0 18.667 -6.16699 33.334 -18.5 44.001s-27.833 16 -46.5 16c-19.333 0 -34.833 -5.33301 -46.5 -16s-17.5 -25.334 -17.5 -44.001
c0 -19.333 6.16699 -34.833 18.5 -46.5s28.166 -23.167 47.499 -34.5c18.667 11.333 33.834 22.833 45.501 34.5s17.5 27.167 17.5 46.5zM532 290.998c0 23.333 -6.83203 41.832 -20.499 55.499s-31.167 26.5 -52.5 38.5c-21.333 -12 -38.833 -24.667 -52.5 -38
s-20.5 -31.666 -20.5 -54.999c0 -20 7.5 -35.833 22.5 -47.5s32.167 -17.5 51.5 -17.5c21.333 0 38.666 5.83301 51.999 17.5s20 27.167 20 46.5z" />
    <glyph glyph-name="uni2468" unicode="&#x2468;" horiz-adv-x="920" 
d="M862 392c0 -55.333 -10.5 -107.5 -31.5 -156.5s-49.667 -91.667 -86 -128s-79 -65 -128 -86s-101.167 -31.5 -156.5 -31.5s-107.5 10.5 -156.5 31.5s-91.667 49.667 -128 86s-65 79 -86 128s-31.5 101.167 -31.5 156.5s10.5 107.5 31.5 156.5s49.667 91.667 86 128
s79 65 128 86s101.167 31.5 156.5 31.5s107.5 -10.5 156.5 -31.5s91.667 -49.667 128 -86s65 -79 86 -128s31.5 -101.167 31.5 -156.5zM805 393c0 48.667 -9 94.667 -27 138s-42.667 81 -74 113s-68 57.333 -110 76s-86.667 28 -134 28s-92 -9.33301 -134 -28
s-78.5 -44 -109.5 -76s-55.5 -69.667 -73.5 -113s-27 -89.333 -27 -138c0 -49.333 9 -95.5 27 -138.5s42.5 -80.5 73.5 -112.5s67.5 -57.333 109.5 -76s86.667 -28 134 -28s92 9.33301 134 28s78.667 44 110 76s56 69.5 74 112.5s27 89.167 27 138.5zM594 454
c0 -36.667 -5.66797 -69.8359 -17.001 -99.5029s-26.833 -55.667 -46.5 -78s-42.5 -41.166 -68.5 -56.499s-53.667 -26.666 -83 -33.999l-14 43c36.667 11.333 68.167 27.5 94.5 48.5s46.833 50.5 61.5 88.5c-8 -3.33301 -16.667 -5.83301 -26 -7.5
s-18.666 -2.5 -27.999 -2.5c-40.667 0 -73 10.833 -97 32.5s-36 52.5 -36 92.5c0 16.667 2.66699 32.834 8 48.501s13.333 29.5 24 41.5s24 21.667 40 29s35 11 57 11c42.667 0 75.167 -14 97.5 -42s33.5 -66.333 33.5 -115zM534.999 456.998c0 35.333 -6 62.832 -18 82.499
s-30.333 29.5 -55 29.5c-23.333 0 -40.5 -8.66699 -51.5 -26s-16.5 -37.666 -16.5 -60.999c0 -59.333 28.333 -89 85 -89c18 0 35 3 51 9c2 10 3.33301 18.833 4 26.5s1 17.167 1 28.5z" />
    <glyph glyph-name="uni2469" unicode="&#x2469;" horiz-adv-x="1166" 
d="M1108 392c0 -55.333 -10.5 -107.5 -31.5 -156.5s-49.667 -91.667 -86 -128s-79 -65 -128 -86s-101.167 -31.5 -156.5 -31.5h-246c-55.333 0 -107.5 10.5 -156.5 31.5s-91.667 49.667 -128 86s-65 79 -86 128s-31.5 101.167 -31.5 156.5s10.5 107.5 31.5 156.5
s49.667 91.667 86 128s79 65 128 86s101.167 31.5 156.5 31.5h246c55.333 0 107.5 -10.5 156.5 -31.5s91.667 -49.667 128 -86s65 -79 86 -128s31.5 -101.167 31.5 -156.5zM1050 393c0 48.667 -9 94.667 -27 138s-42.5 81 -73.5 113s-67.5 57.333 -109.5 76
s-86.667 28 -134 28h-246c-47.333 0 -92 -9.33301 -134 -28s-78.5 -44 -109.5 -76s-55.5 -69.667 -73.5 -113s-27 -89.333 -27 -138c0 -49.333 9 -95.5 27 -138.5s42.5 -80.5 73.5 -112.5s67.5 -57.333 109.5 -76s86.667 -28 134 -28h246c47.333 0 92 9.33301 134 28
s78.5 44 109.5 76s55.5 69.5 73.5 112.5s27 89.167 27 138.5zM852 398c0 -26.667 -2.16699 -52.834 -6.5 -78.501s-11.666 -48.5 -21.999 -68.5s-23.833 -36 -40.5 -48s-37 -18 -61 -18s-44.333 6 -61 18s-30.167 28 -40.5 48s-17.666 42.833 -21.999 68.5
s-6.5 51.834 -6.5 78.501s2.16699 52.834 6.5 78.501s11.666 48.5 21.999 68.5s23.833 36 40.5 48s37 18 61 18s44.333 -6 61 -18s30.167 -28 40.5 -48s17.666 -42.833 21.999 -68.5s6.5 -51.834 6.5 -78.501zM414 192v336.002c-11.333 -6.66699 -27 -12.334 -47 -17.001
s-38.667 -7.66699 -56 -9l-8 39c30 4 56.5 11.167 79.5 21.5s40.167 24.166 51.5 41.499h44v-412h-64zM790 399.002c0 20.667 -1 41.167 -3 61.5s-5.5 38.5 -10.5 54.5s-11.833 29 -20.5 39s-20 15 -34 15s-25.5 -5 -34.5 -15s-16 -23 -21 -39s-8.5 -34.167 -10.5 -54.5
s-3 -40.833 -3 -61.5c0 -21.333 1 -42 3 -62s5.5 -38 10.5 -54s12 -28.833 21 -38.5s20.5 -14.5 34.5 -14.5s25.333 4.83301 34 14.5s15.5 22.5 20.5 38.5s8.5 34 10.5 54s3 40.667 3 62z" />
    <glyph glyph-name="uni246A" unicode="&#x246a;" horiz-adv-x="1166" 
d="M1108 392c0 -55.333 -10.5 -107.5 -31.5 -156.5s-49.667 -91.667 -86 -128s-79 -65 -128 -86s-101.167 -31.5 -156.5 -31.5h-246c-55.333 0 -107.5 10.5 -156.5 31.5s-91.667 49.667 -128 86s-65 79 -86 128s-31.5 101.167 -31.5 156.5s10.5 107.5 31.5 156.5
s49.667 91.667 86 128s79 65 128 86s101.167 31.5 156.5 31.5h246c55.333 0 107.5 -10.5 156.5 -31.5s91.667 -49.667 128 -86s65 -79 86 -128s31.5 -101.167 31.5 -156.5zM1050 393c0 48.667 -9 94.667 -27 138s-42.5 81 -73.5 113s-67.5 57.333 -109.5 76
s-86.667 28 -134 28h-246c-47.333 0 -92 -9.33301 -134 -28s-78.5 -44 -109.5 -76s-55.5 -69.667 -73.5 -113s-27 -89.333 -27 -138c0 -49.333 9 -95.5 27 -138.5s42.5 -80.5 73.5 -112.5s67.5 -57.333 109.5 -76s86.667 -28 134 -28h246c47.333 0 92 9.33301 134 28
s78.5 44 109.5 76s55.5 69.5 73.5 112.5s27 89.167 27 138.5zM713 192v336.002c-11.333 -6.66699 -27 -12.334 -47 -17.001s-38.667 -7.66699 -56 -9l-8 39c30 4 56.5 11.167 79.5 21.5s40.167 24.166 51.5 41.499h44v-412h-64zM437 192.002v336.002
c-11.333 -6.66699 -27 -12.334 -47 -17.001s-38.667 -7.66699 -56 -9l-8 39c30 4 56.5 11.167 79.5 21.5s40.167 24.166 51.5 41.499h44v-412h-64z" />
    <glyph glyph-name="uni246B" unicode="&#x246b;" horiz-adv-x="1166" 
d="M1108 392c0 -55.333 -10.5 -107.5 -31.5 -156.5s-49.667 -91.667 -86 -128s-79 -65 -128 -86s-101.167 -31.5 -156.5 -31.5h-246c-55.333 0 -107.5 10.5 -156.5 31.5s-91.667 49.667 -128 86s-65 79 -86 128s-31.5 101.167 -31.5 156.5s10.5 107.5 31.5 156.5
s49.667 91.667 86 128s79 65 128 86s101.167 31.5 156.5 31.5h246c55.333 0 107.5 -10.5 156.5 -31.5s91.667 -49.667 128 -86s65 -79 86 -128s31.5 -101.167 31.5 -156.5zM1050 393c0 48.667 -9 94.667 -27 138s-42.5 81 -73.5 113s-67.5 57.333 -109.5 76
s-86.667 28 -134 28h-246c-47.333 0 -92 -9.33301 -134 -28s-78.5 -44 -109.5 -76s-55.5 -69.667 -73.5 -113s-27 -89.333 -27 -138c0 -49.333 9 -95.5 27 -138.5s42.5 -80.5 73.5 -112.5s67.5 -57.333 109.5 -76s86.667 -28 134 -28h246c47.333 0 92 9.33301 134 28
s78.5 44 109.5 76s55.5 69.5 73.5 112.5s27 89.167 27 138.5zM574 192l148.999 213.999c13.333 19.333 22.333 35.833 27 49.5s7 26.834 7 39.501c0 46 -26.333 69 -79 69c-13.333 0 -26.666 -1.66699 -39.999 -5s-25 -7.66602 -35 -12.999l-16 42c14 7.33301 30 13 48 17
s36.667 6 56 6c46 0 79.667 -10.333 101 -31s32 -47.667 32 -81c0 -15.333 -4.16699 -32.333 -12.5 -51s-21.833 -40.334 -40.5 -65.001l-103 -138h161v-53h-255zM418.999 191.999v336.002c-6 -3.33301 -13.167 -6.33301 -21.5 -9s-17.166 -5.16699 -26.499 -7.5
s-18.833 -4.33301 -28.5 -6s-18.834 -2.83398 -27.501 -3.50098l-8 39c30 4 56.5 11.167 79.5 21.5s40.167 24.166 51.5 41.499h45v-412h-64z" />
    <glyph glyph-name="uni246C" unicode="&#x246c;" horiz-adv-x="1166" 
d="M1108 392c0 -55.333 -10.5 -107.5 -31.5 -156.5s-49.667 -91.667 -86 -128s-79 -65 -128 -86s-101.167 -31.5 -156.5 -31.5h-246c-55.333 0 -107.5 10.5 -156.5 31.5s-91.667 49.667 -128 86s-65 79 -86 128s-31.5 101.167 -31.5 156.5s10.5 107.5 31.5 156.5
s49.667 91.667 86 128s79 65 128 86s101.167 31.5 156.5 31.5h246c55.333 0 107.5 -10.5 156.5 -31.5s91.667 -49.667 128 -86s65 -79 86 -128s31.5 -101.167 31.5 -156.5zM1050 393c0 48.667 -9 94.667 -27 138s-42.5 81 -73.5 113s-67.5 57.333 -109.5 76
s-86.667 28 -134 28h-246c-47.333 0 -92 -9.33301 -134 -28s-78.5 -44 -109.5 -76s-55.5 -69.667 -73.5 -113s-27 -89.333 -27 -138c0 -49.333 9 -95.5 27 -138.5s42.5 -80.5 73.5 -112.5s67.5 -57.333 109.5 -76s86.667 -28 134 -28h246c47.333 0 92 9.33301 134 28
s78.5 44 109.5 76s55.5 69.5 73.5 112.5s27 89.167 27 138.5zM829 312c0 -19.333 -3.66602 -36.8389 -10.999 -52.5059s-17.333 -29 -30 -40s-27.667 -19.5 -45 -25.5s-36.333 -9 -57 -9c-20 0 -39.833 1.83301 -59.5 5.5s-36.167 9.16699 -49.5 16.5l17 44
c10.667 -5.33301 23.5 -9.66602 38.5 -12.999s29.5 -5 43.5 -5c26.667 0 47.667 7 63 21s23 33.667 23 59c0 29.333 -10 50 -30 62s-44.333 18 -73 18h-12v37c30.667 2.66699 55.167 10.834 73.5 24.501s27.5 31.5 27.5 53.5c0 20.667 -6.33301 35.334 -19 44.001
s-28.667 13 -48 13c-14 0 -27.667 -1.5 -41 -4.5s-25.666 -7.16699 -36.999 -12.5l-16 41c31.333 14.667 65.666 22 102.999 22c34 0 62.667 -8.16699 86 -24.5s35 -39.833 35 -70.5c0 -12.667 -2.16699 -24 -6.5 -34s-10 -18.667 -17 -26s-14.833 -13.666 -23.5 -18.999
s-17.334 -9.66602 -26.001 -12.999v-2c10.667 -3.33301 21.5 -7.66602 32.5 -12.999s20.833 -12.5 29.5 -21.5s15.667 -19.667 21 -32s8 -26.833 8 -43.5zM419.001 191.994v336.002c-6 -3.33301 -13.167 -6.33301 -21.5 -9s-17.166 -5.16699 -26.499 -7.5
s-18.833 -4.33301 -28.5 -6s-18.834 -2.83398 -27.501 -3.50098l-8 39c30 4 56.5 11.167 79.5 21.5s40.167 24.166 51.5 41.499h45v-412h-64z" />
    <glyph glyph-name="uni246D" unicode="&#x246d;" horiz-adv-x="1166" 
d="M1108 392c0 -55.333 -10.5 -107.5 -31.5 -156.5s-49.667 -91.667 -86 -128s-79 -65 -128 -86s-101.167 -31.5 -156.5 -31.5h-246c-55.333 0 -107.5 10.5 -156.5 31.5s-91.667 49.667 -128 86s-65 79 -86 128s-31.5 101.167 -31.5 156.5s10.5 107.5 31.5 156.5
s49.667 91.667 86 128s79 65 128 86s101.167 31.5 156.5 31.5h246c55.333 0 107.5 -10.5 156.5 -31.5s91.667 -49.667 128 -86s65 -79 86 -128s31.5 -101.167 31.5 -156.5zM1050 393c0 48.667 -9 94.667 -27 138s-42.5 81 -73.5 113s-67.5 57.333 -109.5 76
s-86.667 28 -134 28h-246c-47.333 0 -92 -9.33301 -134 -28s-78.5 -44 -109.5 -76s-55.5 -69.667 -73.5 -113s-27 -89.333 -27 -138c0 -49.333 9 -95.5 27 -138.5s42.5 -80.5 73.5 -112.5s67.5 -57.333 109.5 -76s86.667 -28 134 -28h246c47.333 0 92 9.33301 134 28
s78.5 44 109.5 76s55.5 69.5 73.5 112.5s27 89.167 27 138.5zM801 283v-91h-58v91h-168v40l166 281h60v-283h46v-38h-46zM415 192v336.002c-11.333 -6.66699 -27 -12.334 -47 -17.001s-38.667 -7.66699 -56 -9l-8 39c30 4 56.5 11.167 79.5 21.5s40.167 24.166 51.5 41.499
h44v-412h-64zM744 543.002c-4.66699 -11.333 -9.33203 -21.833 -13.999 -31.5s-9.33398 -18.5 -14.001 -26.5l-96 -164h124v160c0 9.33301 0.166992 19.5 0.5 30.5s0.833008 21.5 1.5 31.5h-2z" />
    <glyph glyph-name="uni246E" unicode="&#x246e;" horiz-adv-x="1166" 
d="M1108 392c0 -55.333 -10.5 -107.5 -31.5 -156.5s-49.667 -91.667 -86 -128s-79 -65 -128 -86s-101.167 -31.5 -156.5 -31.5h-246c-55.333 0 -107.5 10.5 -156.5 31.5s-91.667 49.667 -128 86s-65 79 -86 128s-31.5 101.167 -31.5 156.5s10.5 107.5 31.5 156.5
s49.667 91.667 86 128s79 65 128 86s101.167 31.5 156.5 31.5h246c55.333 0 107.5 -10.5 156.5 -31.5s91.667 -49.667 128 -86s65 -79 86 -128s31.5 -101.167 31.5 -156.5zM1050 393c0 48.667 -9 94.667 -27 138s-42.5 81 -73.5 113s-67.5 57.333 -109.5 76
s-86.667 28 -134 28h-246c-47.333 0 -92 -9.33301 -134 -28s-78.5 -44 -109.5 -76s-55.5 -69.667 -73.5 -113s-27 -89.333 -27 -138c0 -49.333 9 -95.5 27 -138.5s42.5 -80.5 73.5 -112.5s67.5 -57.333 109.5 -76s86.667 -28 134 -28h246c47.333 0 92 9.33301 134 28
s78.5 44 109.5 76s55.5 69.5 73.5 112.5s27 89.167 27 138.5zM826 312c0 -17.333 -3.33203 -33.833 -9.99902 -49.5s-16.334 -29.167 -29.001 -40.5s-27.667 -20.333 -45 -27s-36.666 -10 -57.999 -10c-19.333 0 -39 1.83301 -59 5.5s-36.667 9.16699 -50 16.5l18 44
c10 -5.33301 22.333 -9.66602 37 -12.999s29.334 -5 44.001 -5c26.667 0 47.667 7.83301 63 23.5s23 34.167 23 55.5c0 25.333 -7.83301 46.166 -23.5 62.499s-42.5 24.5 -80.5 24.5c-9.33301 0 -18.833 -0.5 -28.5 -1.5s-19.834 -2.16699 -30.501 -3.5l23 210h193v-52h-149
l-13 -117c3.33301 0.666992 7.66602 1.16699 12.999 1.5s11 0.5 17 0.5c47.333 0 83.333 -11.333 108 -34s37 -53 37 -91zM416.001 192v336.002c-6 -3.33301 -13.167 -6.33301 -21.5 -9s-17.166 -5.16699 -26.499 -7.5s-18.833 -4.33301 -28.5 -6
s-18.834 -2.83398 -27.501 -3.50098l-8 39c30 4 56.5 11.167 79.5 21.5s40.167 24.166 51.5 41.499h45v-412h-64z" />
    </font>
</defs>
</svg>
